Алексей Каленкович - Торговля опционами, как балансирование рисков (2016)

Ответить на тему
 
Автор Сообщение

Yulya ®

Алексей Каленкович | Торговля опционами, как балансирование рисков (2016) CamRip - Автор (режиссер): Алексей Каленкович
Производство: Красный циркуль
Жанр: Трейдинг,опционные контракты
Описание:
Кому рекомендуем посетить это занятие:
-Вы хотите прокачать понимание рынка опционов РФ
-Вы хотите больше узнать о рисках, научиться их контролировать и понять, как это использовать в торговле
Требования к слушателям:
-Уровень подготовки может быть от начинающего до опытного
Знать:
-Опционная волатильность (implied volatility)
-Историческая волатильность
-греки (дельта, гамма, вега, тетта)

Содержание:

День первый Часть 1 и 228 октября, начало в 00:00 по Москве или в 23:00 по вашему времени, продолжительность — 6 ч.
Часть 1 (с 10 до 13)Риск всегда нелинеен. На опционах все нелинейно. Риск надо уметь оценивать и регулировать. Связь доходности и риска - базовый принцип.Ранжирование риска:
Дельта опциона - как вероятность исполнения контракта в деньгах.
Вега опциона - чистый рыночный риск.
Тетта опциона - мера вашей агрессии при регулярном дельта-хедже.
Биржевое ГО - комплексная оценка риска
Вопросы, обсуждение и дополнительные поясненияЧасть 2 ( с 15 до 18)Улыбка волатильности - расширенный подход к оценке возможностей/риска
Наклон улыбки
Форма улыбки
Зависимость улыбки от времени, уточнение расчета Тетты
Вопросы, обсуждение и дополнительные пояснения
День второй Часть 328 октября, начало в 00:00 по Москве или в 23:00 по вашему времени, продолжительность — 3 ч.
Построение стратегий на опционах как применение теории о рисках
СГП (слабо-гамма-положительная стратегия)
Непокрытая продажа ванильных опционов
Обсуждение, ответы на вопросы
Продолжительность: 08:15:15
Качество видео: CamRip
Видео: AVC/H.264, 1280x720, ~1182kbps
Аудио: AAC, 2 ch, 161kbps

Mediainfo:

Video: MPEG4 Video (H264) 1280x720 29.97fps 1182kbps [V: ISO Media file produced by Google Inc. (h264 main L3.1, yuv420p, 1280x720, 1182 kb/s)]
Audio: AAC 44100Hz stereo 125kbps [A: ISO Media file produced by Google Inc. (aac lc, 44100 Hz, stereo, 125 kb/s)]
Format : MPEG-4
Format profile : Base Media / Version 2
Codec ID : mp42 (isom/mp42)
File size : 1.44 GiB
Duration : 2 h 36 min
Overall bit rate mode : Variable
Overall bit rate : 1 312 kb/s
Encoded date : UTC 2016-10-26 10:57:46
Tagged date : UTC 2016-10-26 10:57:46
gsst : 0
gstd : 9416690
Video
ID : 1
Format : AVC
Format/Info : Advanced Video Codec
Format profile : Main@L3.1
Format settings, CABAC : Yes
Format settings, ReFrames : 3 frames
Codec ID : avc1
Codec ID/Info : Advanced Video Coding
Duration : 2 h 36 min
Bit rate : 1 183 kb/s
Width : 1 280 pixels
Height : 720 pixels
Display aspect ratio : 16:9
Frame rate mode : Constant
Frame rate : 29.970 (30000/1001) FPS
Color space : YUV
Chroma subsampling : 4:2:0
Bit depth : 8 bits
Scan type : Progressive
Bits/(Pixel*Frame) : 0.043
Stream size : 1.30 GiB (90%)
Title : ISO Media file produced by Google Inc.
Encoded date : UTC 2016-10-26 10:57:46
Tagged date : UTC 2016-10-26 10:57:46
Color range : Limited
Color primaries : BT.709
Transfer characteristics : BT.709
Matrix coefficients : BT.709
Audio
ID : 2
Format : AAC
Format/Info : Advanced Audio Codec
Format profile : LC
Codec ID : 40
Duration : 2 h 36 min
Bit rate mode : Variable
Bit rate : 126 kb/s
Channel(s) : 2 channels
Channel positions : Front: L R
Sampling rate : 44.1 kHz
Frame rate : 43.066 FPS (1024 spf)
Compression mode : Lossy
Stream size : 141 MiB (10%)
Title : ISO Media file produced by Google Inc.
Encoded date : UTC 2016-10-26 10:57:46
Tagged date : UTC 2016-10-26 10:57:46
Скриншоты:
Скачать .torrent

Для того, чтобы скачать торрент-файл

Алексей Каленкович - Торговля опционами, как балансирование рисков (2016)

с нашего сайта, Вам необходимо Войти на сайт под своим логином! Если у Вас ещё нет логина, тогда Вам нужно сначала Зарегистрироваться!

Как скачивать? · Что такое торрент? · Рейтинг и ограничения

Показать сообщения:    
Ответить на тему

Алексей Каленкович - Торговля опционами, как балансирование рисков (2016) скачать торрент (torrent), видеоуроки, тренинги, обучающее видео и видеокурсы

Текущее время: Сегодня 09:17

Часовой пояс: GMT + 4



Вы не можете начинать темы
Вы не можете отвечать на сообщения
Вы не можете редактировать свои сообщения
Вы не можете удалять свои сообщения
Вы не можете голосовать в опросах
Вы не можете прикреплять файлы к сообщениям
Вы не можете скачивать файлы