Сергей Бехтерев - MindJet: 7 шагов к результату (2012)

Ответить на тему
 
Автор Сообщение

Yulya ®

Сергей Бехтерев | MindJet: 7 шагов к результату (2012) HDTV - Автор (режиссер): Сергей Бехтерев
Производство: Россия
Жанр: Бизнес-образование
Описание:
Современный человек сталкивается с лавиной информации. Для решения любых задач ему необходимо научиться грамотно структурировать мысли, идеи и факты.
Майнд-менеджмент — это технология представления любой, даже самой сложной информации, в максимально понятном и наглядном виде. Курс "MindJet: 7 шагов к результату" знакомит с методикой — применением интеллект-карт (карт ума), а с программой программы MindJet для решения практических задач. Посмотрев видео курс вы научитесь:
- Быстро принимать взвешенные решения.
- Готовить наглядные и понятные презентации.
- Быстро и с удовольствием писать понятные тексты.
- Проводить увлекательные мозговые штурмы и продуктивно использовать их результаты.
- Расставлять приоритеты и успевать главное в своей жизни.
Продолжительность: 02:15:29
Качество видео: HDTV
Видео: AVC/H.264, 1280х720, ~2000 Кбит/сек
Аудио: AAC, 2 ch, 192 Kbps

Mediainfo:

Формат                                   : MPEG-4
Профиль формата : Base Media / Version 2
Идентификатор кодека : mp42 (mp42/mp41)
Размер файла : 2,34 Гбайт
Продолжительность : 02:15:29
Режим общего битрейта : Переменный
Общий поток : 2309 Кбит/сек
Дата кодирования : UTC 2012-12-25 11:02:17
Дата пометки : UTC 2012-12-25 11:02:17
Видео
Идентификатор : 1
Формат : AVC
Формат/Информация : Advanced Video Codec
Профиль формата : Main@L4.1
Параметр CABAC формата : Да
Параметр ReFrames формата : 3 кадр
Идентификатор кодека : avc1
Идентификатор кодека/Информация : Advanced Video Coding
Продолжительность : 02:15:29
Битрейт : 2112 Кбит/сек
Максимальный битрейт : 5776 Кбит/сек
Ширина : 1280 пикселей
Высота : 720 пикселей
Соотношение сторон : 16:9
Режим частоты кадров : Постоянный
Частота кадров : 25,000 кадров/сек
Цветовое пространство : YUV
Субдискретизация насыщенности : 4:2:0
Битовая глубина : 8 бит
Тип развёртки : Прогрессивная
Бит/(Пиксели*Кадры) : 0.092
Размер потока : 77,6 Мбайт (91%)
Дата пометки : UTC 2012-12-25 11:02:17
Аудио
Идентификатор : 2
Формат : AAC
Формат/Информация : Advanced Audio Codec
Профиль формата : LC
Идентификатор кодека : 40
Продолжительность : 02:15:29
Вид битрейта : Переменный
Битрейт : 192 Кбит/сек
Максимальный битрейт : 202 Кбит/сек
Каналы : 2 канала
Расположение каналов : Front: L R
Частота : 44,1 КГц
Частота кадров : 43,066 кадра/сек (1024 spf)
Метод сжатия : С потерями
Размер потока : 258 Мбайт (24%)
Заголовок : IsoMedia File Produced by Google, 5-11-2011
Дата кодирования : UTC 2012-12-25 11:02:17
Дата пометки : UTC 2012-12-25 11:02:17
Скачать .torrent

Для того, чтобы скачать торрент-файл

Сергей Бехтерев - MindJet: 7 шагов к результату (2012)

с нашего сайта, Вам необходимо Войти на сайт под своим логином! Если у Вас ещё нет логина, тогда Вам нужно сначала Зарегистрироваться!

Как скачивать? · Что такое торрент? · Рейтинг и ограничения

Показать сообщения:    
Ответить на тему

Сергей Бехтерев - MindJet: 7 шагов к результату (2012) скачать торрент (torrent), видеоуроки, тренинги, обучающее видео и видеокурсы

Текущее время: Сегодня 23:49

Часовой пояс: GMT + 4



Вы не можете начинать темы
Вы не можете отвечать на сообщения
Вы не можете редактировать свои сообщения
Вы не можете удалять свои сообщения
Вы не можете голосовать в опросах
Вы не можете прикреплять файлы к сообщениям
Вы не можете скачивать файлы