Бизнес Молодость - Бизнес под ключ (2016)

Ответить на тему
 
Автор Сообщение

Yulya ®

Бизнес Молодость | Бизнес под ключ (2016) WEBRip - Автор (режиссер): Бизнес Молодость
Жанр: Бизнес, предпринимательство
Описание:
Практический онлайн-курс из 2х занятий, для тех, кто хочет начать свой путь в бизнесе по модели франчайзинга. Курс однозначно вам необходим даже, если вы пока не планируете открывать бизнес по франшизе, но хотите узнать больше.
А также:
  • Хотите запустить прибыльный бизнес с минимальными рисками.
  • Мечтаете присоединиться к успеху крупной компании в выбранной нише.
  • Пробовали запустить бизнес самостоятельно, но дело не пошло.
Продолжительность: 09:35:35
Качество видео: WEBRip
Видео: AVC/H.264, 1280x720, ~2505 Kbps
Аудио: AAC, 2 ch, 256 Kbps

Ведущие

Михаил Дашкиев
Сергей Дегтярев
Олег Торбосов
Александр Кравцов
Снежана Манько

Состав раздачи

1. Вводное. Огонь-франшиза
2. Честно о франчайзинге за 1 вечер
3. 3. Как отличить франшизы-бизнес от пустышки

Mediainfo:

Формат                                   : MPEG-4
Профиль формата : Base Media
Идентификатор кодека : isom (isom/iso2/avc1/mp41)
Размер файла : 1,52 Гбайт
Продолжительность : 1 ч. 18 м.
Общий поток : 2768 Кбит/сек
Программа кодирования : Lavf55.12.100
Видео
Идентификатор : 2
Формат : AVC
Формат/Информация : Advanced Video Codec
Профиль формата : High@L3.2
Параметр CABAC формата : Да
Параметр ReFrames формата : 5 кадров
Идентификатор кодека : avc1
Идентификатор кодека/Информация : Advanced Video Coding
Продолжительность : 1 ч. 18 м.
Битрейт : 2505 Кбит/сек
Ширина : 1280 пикселей
Высота : 720 пикселей
Соотношение сторон : 16:9
Режим частоты кадров : Постоянный
Частота кадров : 25,000 кадров/сек
Цветовое пространство : YUV
Субдискретизация насыщенности : 4:2:0
Битовая глубина : 8 бит
Тип развёртки : Прогрессивная
Бит/(Пиксели*Кадры) : 0.109
Размер потока : 1,38 Гбайт (91%)
Цветовой диапазон : Limited
Основные цвета : BT.709
Характеристики трансфера : BT.709
Коэффициенты матрицы : BT.709
Аудио
Идентификатор : 1
Формат : AAC
Формат/Информация : Advanced Audio Codec
Профиль формата : LC
Идентификатор кодека : 40
Продолжительность : 1 ч. 18 м.
Вид битрейта : Постоянный
Битрейт : 256 Кбит/сек
Каналы : 2 канала
Расположение каналов : Front: L R
Частота : 48,0 КГц
Частота кадров : 46,875 кадров/сек (1024 spf)
Метод сжатия : С потерями
Размер потока : 144 Мбайт (9%)
Default : Да
AlternateGroup/String : 1
Скриншоты:
Скачать .torrent

Для того, чтобы скачать торрент-файл

Бизнес Молодость - Бизнес под ключ (2016)

с нашего сайта, Вам необходимо Войти на сайт под своим логином! Если у Вас ещё нет логина, тогда Вам нужно сначала Зарегистрироваться!

Как скачивать? · Что такое торрент? · Рейтинг и ограничения

Показать сообщения:    
Ответить на тему

Бизнес Молодость - Бизнес под ключ (2016) скачать торрент (torrent), видеоуроки, тренинги, обучающее видео и видеокурсы

Текущее время: Сегодня 19:38

Часовой пояс: GMT + 4



Вы не можете начинать темы
Вы не можете отвечать на сообщения
Вы не можете редактировать свои сообщения
Вы не можете удалять свои сообщения
Вы не можете голосовать в опросах
Вы не можете прикреплять файлы к сообщениям
Вы не можете скачивать файлы