Сергей Митюков - Сборник курсов - Опционные контракты (2013-2016)

Ответить на тему
 
Автор Сообщение

Yulya ®

Сергей Митюков | Сборник курсов - Опционные контракты (2013-2016) PCRec - Автор (режиссер): Сергей Митюков
Жанр: Трейдинг,Опционы
Описание:
Опционы называют одним из самых сложных инструментов.
Сергей Митюков расскажет участникам о самых простых методах анализа опционных настроений, которые можно применять для трейдинга на разных рынках в сборнике своих курсов
Уровень: Для начинающих,бывалых, опытных

Сборник Курсов:

1. Анализ опционов для торговли на фьючерсном и валютном рынках
2. Взаимосвязь смежных рынков
3. От ТС к осознанной торговле
4. Паттерны для внутридневной торговли
5. Практические методы борьбы за профит
6. Реальные торговые приемы
7. Рыночные фазы
8. Систематизация технических и статистических точек входа
9. Торговые планы
10. Обзор методов определения паттернов прайс-экшен
11. Три фундаментальных аспекта внутридневной торговли
12.Работа от контрольных зон. Дневные, недельные и месячные
Курс 2015 год
Внутридневная торговля
Теория
Продолжительность: 07:36:22
Качество видео: PCRec
Видео: TechSmith, 1437x871, ~551kbps
Аудио: PCM, 2 ch, 352kbps

Mediainfo:

Формат                                   : AVI
Формат/Информация : Audio Video Interleave
Размер файла : 502 Мбайт
Продолжительность : 1 ч. 17 м.
Общий поток : 909 Кбит/сек
Видео
Идентификатор : 0
Формат : TechSmith
Идентификатор кодека : tscc
Идентификатор кодека/Информация : TechSmith Screen Capture
Продолжительность : 1 ч. 17 м.
Битрейт : 552 Кбит/сек
Ширина : 1437 пикселей
Высота : 871 пикселей
Соотношение сторон : 5:3
Частота кадров : 15,000 кадров/сек
Бит/(Пиксели*Кадры) : 0.029
Размер потока : 305 Мбайт (61%)
Аудио
Идентификатор : 1
Формат : PCM
Параметр Endianness формата : Little
Параметр Sign формата : Signed
Идентификатор кодека : 1
Продолжительность : 1 ч. 17 м.
Вид битрейта : Постоянный
Битрейт : 352,8 Кбит/сек
Каналы : 1 канал
Частота : 22,05 КГц
Битовая глубина : 16 бит
Размер потока : 195 Мбайт (39%)
Выравнивание : Соединение по промежуткам
Продолжительность промежутка : 1000 мс. (15,00 видеокадров)
Время предзагрузки промежутка : 1000 мс.
Скриншоты:
Скачать .torrent

Для того, чтобы скачать торрент-файл

Сергей Митюков - Сборник курсов - Опционные контракты (2013-2016)

с нашего сайта, Вам необходимо Войти на сайт под своим логином! Если у Вас ещё нет логина, тогда Вам нужно сначала Зарегистрироваться!

Как скачивать? · Что такое торрент? · Рейтинг и ограничения

Показать сообщения:    
Ответить на тему

Сергей Митюков - Сборник курсов - Опционные контракты (2013-2016) скачать торрент (torrent), видеоуроки, тренинги, обучающее видео и видеокурсы

Текущее время: Сегодня 23:56

Часовой пояс: GMT + 4



Вы не можете начинать темы
Вы не можете отвечать на сообщения
Вы не можете редактировать свои сообщения
Вы не можете удалять свои сообщения
Вы не можете голосовать в опросах
Вы не можете прикреплять файлы к сообщениям
Вы не можете скачивать файлы