КБ Торговый робот - Видеокурс о создании торговых роботов и советников для MetaTrader (2011)

Ответить на тему
 
Автор Сообщение

Yulya ®

КБ Торговый робот | Видеокурс о создании торговых роботов и советников для MetaTrader (2011) PCRec - Автор (режиссер): КБ Торговый робот
Жанр: Алготрейдинг
Оф. сайт: kbrobot.ru
Описание:
Как сделать собственного советника FOREX на MQL?
Как заработать на рынке FOREX?
Как сделать робота для METATRADER?
Ответы на эти и многие другие вопросы Вы найдете в видеокурсе об MQL!!
"Успех на FOREX c советником в MQL"- это единственный полный сборник всех знаний о языке для metatrader, так называемый справочник mql. Теперь Вы сами сможете увеличить свой капитал почти в 10!!! раз всего за 12 недель, как победитель конкурса советников для Метатрейдера. Это Ваш первый шаг на пути к ФИНАНСОВОЙ НЕЗАВИСИМОСТИ
Продолжительность: 14:38:42
Качество видео: PCRec
Видео: TSCC 1440x900, ~2009kbps
Аудио: PCM, 2 ch, 352kbps

Mediainfo:

Формат                                   : AVI
Формат/Информация : Audio Video Interleave
Размер файла : 761 Мбайт
Продолжительность : 29 м.
Общий поток : 3643 Кбит/сек
Видео
Идентификатор : 0
Формат : TechSmith TSCC
Идентификатор кодека : tscc
Идентификатор кодека/Информация : TechSmith Screen Capture
Продолжительность : 29 м.
Битрейт : 3285 Кбит/сек
Ширина : 1680 пикселей
Высота : 996 пикселей
Соотношение сторон : 5:3
Частота кадров : 15,000 кадров/сек
Бит/(Пиксели*Кадры) : 0.131
Размер потока : 686 Мбайт (90%)
Аудио
Идентификатор : 1
Формат : PCM
Параметр Endianness формата : Little
Параметр Sign формата : Signed
Идентификатор кодека : 1
Продолжительность : 29 м.
Вид битрейта : Постоянный
Битрейт : 352,8 Кбит/сек
Каналы : 1 канал
Частота : 22,05 КГц
Битовая глубина : 16 бит
Размер потока : 73,7 Мбайт (10%)
Выравнивание : Соединение по промежуткам
Продолжительность промежутка : 1000 мс. (15,00 видеокадров)
Время предзагрузки промежутка : 749 мс.
Скриншоты:
Скачать .torrent

Для того, чтобы скачать торрент-файл

КБ Торговый робот - Видеокурс о создании торговых роботов и советников для MetaTrader (2011)

с нашего сайта, Вам необходимо Войти на сайт под своим логином! Если у Вас ещё нет логина, тогда Вам нужно сначала Зарегистрироваться!

Как скачивать? · Что такое торрент? · Рейтинг и ограничения

Показать сообщения:    
Ответить на тему

КБ Торговый робот - Видеокурс о создании торговых роботов и советников для MetaTrader (2011) скачать торрент (torrent), видеоуроки, тренинги, обучающее видео и видеокурсы

Текущее время: Сегодня 06:28

Часовой пояс: GMT + 4



Вы не можете начинать темы
Вы не можете отвечать на сообщения
Вы не можете редактировать свои сообщения
Вы не можете удалять свои сообщения
Вы не можете голосовать в опросах
Вы не можете прикреплять файлы к сообщениям
Вы не можете скачивать файлы