Вадим Нажипов - Продажи по телефону (2012)

Ответить на тему
 
Автор Сообщение

Yulya ®

Вадим Нажипов | Продажи по телефону (2012) CamRip [H.264] - Автор (режиссер): Вадим Нажипов
Производство: Новые Возможности
Жанр: Продажи
Описание:
Тренинг предназначен для сотрудников отдела активных продаж.
- Как правильно совершать холодные звонки;
- Как структурировать переговоры;
- Как работать с возражениями;
- Как поддерживать себя в тонусе при большом количестве отказов;
- Как правильно расставлять приоритеты в работе;
- Как быть лучшим в конкурентной среде.
Тренинг включает практические занятия в группах для отработки рабочих ситуаций и закрепления навыков.
Продолжительность: 03:15:24
Качество видео: CamRip
Видео: AVC/H.264, 640х360, ~530 Kbps
Аудио: AAC, 2 ch, 96 Kbps, VBR

Mediainfo:

Код:
General
Complete name                            : C:\Torrents\Нажипов Вадим - Продажи по телефону (2012)\Продажи по телефону - Часть 1.mp4
Format                                   : MPEG-4
Format profile                           : Base Media / Version 2
Codec ID                                 : mp42
File size                                : 42.8 MiB
Duration                                 : 16mn 37s
Overall bit rate mode                    : Variable
Overall bit rate                         : 360 Kbps
Encoded date                             : UTC 2012-07-18 18:58:33
Tagged date                              : UTC 2012-07-18 18:58:33
gsst                                     : 0
gstd                                     : 997645
gssd                                     : B4A7DDA64HH1343843902686099
gshh                                     : r4---fra07t14.c.youtube.com
Video
ID                                       : 1
Format                                   : AVC
Format/Info                              : Advanced Video Codec
Format profile                           : Baseline@L3.0
Format settings, CABAC                   : No
Format settings, ReFrames                : 1 frame
Format settings, GOP                     : M=1, N=60
Codec ID                                 : avc1
Codec ID/Info                            : Advanced Video Coding
Duration                                 : 16mn 37s
Bit rate                                 : 261 Kbps
Maximum bit rate                         : 530 Kbps
Width                                    : 640 pixels
Height                                   : 360 pixels
Display aspect ratio                     : 16:9
Frame rate mode                          : Constant
Frame rate                               : 29.970 fps
Color space                              : YUV
Chroma subsampling                       : 4:2:0
Bit depth                                : 8 bits
Scan type                                : Progressive
Bits/(Pixel*Frame)                       : 0.038
Stream size                              : 31.1 MiB (73%)
Encoded date                             : UTC 1970-01-01 00:00:00
Tagged date                              : UTC 2012-07-18 18:58:34
Audio
ID                                       : 2
Format                                   : AAC
Format/Info                              : Advanced Audio Codec
Format profile                           : LC
Codec ID                                 : 40
Duration                                 : 16mn 37s
Bit rate mode                            : Variable
Bit rate                                 : 96.0 Kbps
Maximum bit rate                         : 104 Kbps
Channel(s)                               : 2 channels
Channel positions                        : Front: L R
Sampling rate                            : 44.1 KHz
Compression mode                         : Lossy
Stream size                              : 11.4 MiB (27%)
Title                                    : IsoMedia File Produced by Google, 5-11-2011
Encoded date                             : UTC 2012-07-18 18:58:34
Tagged date                              : UTC 2012-07-18 18:58:34
Скачать .torrent

Для того, чтобы скачать торрент-файл

Вадим Нажипов - Продажи по телефону (2012)

с нашего сайта, Вам необходимо Войти на сайт под своим логином! Если у Вас ещё нет логина, тогда Вам нужно сначала Зарегистрироваться!

Как скачивать? · Что такое торрент? · Рейтинг и ограничения

Показать сообщения:    
Ответить на тему

Вадим Нажипов - Продажи по телефону (2012) скачать торрент (torrent), видеоуроки, тренинги, обучающее видео и видеокурсы

Текущее время: Сегодня 23:42

Часовой пояс: GMT + 4



Вы не можете начинать темы
Вы не можете отвечать на сообщения
Вы не можете редактировать свои сообщения
Вы не можете удалять свои сообщения
Вы не можете голосовать в опросах
Вы не можете прикреплять файлы к сообщениям
Вы не можете скачивать файлы