Иван Коваль-Зайцев - Аглоритм на миллион (2017)

Ответить на тему
 
Автор Сообщение

Yulya ®

Иван Коваль-Зайцев | Аглоритм на миллион (2017) PCRec - Автор (режиссер): Иван Коваль-Зайцев
Жанр: Трейдинг
Официальный сайт
Описание:
"Алгоритм на миллион" - это результат многолетнего опыта работы на финансовых рынках. Это информация о том пути, который приведет любого упорного путника к вершине финансового Олимпа. Здесь вы научитесь понимать рынок и действовать на нем так, чтобы зарабатывать большие деньги.
Чтобы начать зарабатывать деньги на бирже, не нужно иметь экономическое образование. Не нужно знать финансовые термины или статистические законы. Но нужно уметь (и хотеть) трудиться и думать головой. Легких денег здесь, к сожалению, нет.
Проектирование - важнейший этап строительства любого дома.
В трейдинге точно так же...
Однажды научившись проектировать торговые алгоритмы, вы уже не сможете терять деньги на бирже...
Алгоритм на миллион состоит из трех модулей.
Каждый из них затрагивает все аспекты трейдинга с разной степенью сложности.
Продолжительность: 03:54:41
Качество видео: PCRec
Видео: AVC/H.264, 1280x720, ~1085 Kbps
Аудио: AAC, 2 ch, 192 Kbps

Mediainfo:

eneral
Complete name : Q:\Алгоритм на миллион\0.mp4
Format : MPEG-4
Format profile : Base Media / Version 2
Codec ID : mp42
File size : 70.2 MiB
Duration : 7mn 47s
Overall bit rate mode : Variable
Overall bit rate : 1 260 Kbps
Encoded date : UTC 2017-01-23 11:10:11
Tagged date : UTC 2017-01-23 11:10:11
gsst : 0
gstd : 467138
Video
ID : 1
Format : AVC
Format/Info : Advanced Video Codec
Format profile : High@L3.1
Format settings, CABAC : Yes
Format settings, ReFrames : 1 frame
Codec ID : avc1
Codec ID/Info : Advanced Video Coding
Duration : 7mn 47s
Bit rate : 1 066 Kbps
Maximum bit rate : 2 445 Kbps
Width : 1 280 pixels
Height : 720 pixels
Display aspect ratio : 16:9
Frame rate mode : Variable
Frame rate : 29.970 fps
Minimum frame rate : 29.970 fps
Maximum frame rate : 30.273 fps
Color space : YUV
Chroma subsampling : 4:2:0
Bit depth : 8 bits
Scan type : Progressive
Bits/(Pixel*Frame) : 0.039
Stream size : 59.4 MiB (85%)
Tagged date : UTC 2017-01-23 11:10:14
Color range : Limited
Color primaries : BT.709
Transfer characteristics : BT.709
Matrix coefficients : BT.709
Audio
ID : 2
Format : AAC
Format/Info : Advanced Audio Codec
Format profile : LC
Codec ID : 40
Duration : 7mn 47s
Bit rate mode : Variable
Bit rate : 192 Kbps
Maximum bit rate : 203 Kbps
Channel(s) : 2 channels
Channel positions : Front: L R
Sampling rate : 44.1 KHz
Compression mode : Lossy
Stream size : 10.7 MiB (15%)
Title : IsoMedia File Produced by Google, 5-11-2011
Language : Russian
Encoded date : UTC 2017-01-23 11:10:13
Tagged date : UTC 2017-01-23 11:10:14
General
Complete name : Q:\Алгоритм на миллион\1.mp4
Format : MPEG-4
Format profile : Base Media / Version 2
Codec ID : mp42
File size : 570 MiB
Duration : 1h 2mn
Overall bit rate mode : Variable
Overall bit rate : 1 280 Kbps
Encoded date : UTC 2017-01-22 21:37:05
Tagged date : UTC 2017-01-22 21:37:05
gsst : 0
gstd : 3735370
Video
ID : 1
Format : AVC
Format/Info : Advanced Video Codec
Format profile : High@L3.1
Format settings, CABAC : Yes
Format settings, ReFrames : 1 frame
Codec ID : avc1
Codec ID/Info : Advanced Video Coding
Duration : 1h 2mn
Bit rate : 1 085 Kbps
Maximum bit rate : 5 567 Kbps
Width : 1 280 pixels
Height : 720 pixels
Display aspect ratio : 16:9
Frame rate mode : Variable
Frame rate : 29.970 fps
Minimum frame rate : 29.970 fps
Maximum frame rate : 30.273 fps
Color space : YUV
Chroma subsampling : 4:2:0
Bit depth : 8 bits
Scan type : Progressive
Bits/(Pixel*Frame) : 0.039
Stream size : 483 MiB (85%)
Tagged date : UTC 2017-01-22 21:37:31
Color range : Limited
Color primaries : BT.709
Transfer characteristics : BT.709
Matrix coefficients : BT.709
Audio
ID : 2
Format : AAC
Format/Info : Advanced Audio Codec
Format profile : LC
Codec ID : 40
Duration : 1h 2mn
Bit rate mode : Variable
Bit rate : 192 Kbps
Maximum bit rate : 203 Kbps
Channel(s) : 2 channels
Channel positions : Front: L R
Sampling rate : 44.1 KHz
Compression mode : Lossy
Stream size : 85.5 MiB (15%)
Title : IsoMedia File Produced by Google, 5-11-2011
Language : Russian
Encoded date : UTC 2017-01-22 21:37:20
Tagged date : UTC 2017-01-22 21:37:31
General
Complete name : Q:\Алгоритм на миллион\2.mp4
Format : MPEG-4
Format profile : Base Media / Version 2
Codec ID : mp42
File size : 460 MiB
Duration : 50mn 14s
Overall bit rate mode : Variable
Overall bit rate : 1 279 Kbps
Encoded date : UTC 2017-01-23 14:43:11
Tagged date : UTC 2017-01-23 14:43:11
gsst : 0
gstd : 3014576
Video
ID : 1
Format : AVC
Format/Info : Advanced Video Codec
Format profile : High@L3.1
Format settings, CABAC : Yes
Format settings, ReFrames : 1 frame
Codec ID : avc1
Codec ID/Info : Advanced Video Coding
Duration : 50mn 14s
Bit rate : 1 084 Kbps
Maximum bit rate : 2 305 Kbps
Width : 1 280 pixels
Height : 720 pixels
Display aspect ratio : 16:9
Frame rate mode : Variable
Frame rate : 29.970 fps
Minimum frame rate : 29.970 fps
Maximum frame rate : 30.273 fps
Color space : YUV
Chroma subsampling : 4:2:0
Bit depth : 8 bits
Scan type : Progressive
Bits/(Pixel*Frame) : 0.039
Stream size : 390 MiB (85%)
Tagged date : UTC 2017-01-23 14:43:29
Color range : Limited
Color primaries : BT.709
Transfer characteristics : BT.709
Matrix coefficients : BT.709
Audio
ID : 2
Format : AAC
Format/Info : Advanced Audio Codec
Format profile : LC
Codec ID : 40
Duration : 50mn 14s
Bit rate mode : Variable
Bit rate : 192 Kbps
Maximum bit rate : 203 Kbps
Channel(s) : 2 channels
Channel positions : Front: L R
Sampling rate : 44.1 KHz
Compression mode : Lossy
Stream size : 69.0 MiB (15%)
Title : IsoMedia File Produced by Google, 5-11-2011
Language : Russian
Encoded date : UTC 2017-01-23 14:43:22
Tagged date : UTC 2017-01-23 14:43:29
General
Complete name : Q:\Алгоритм на миллион\3.mp4
Format : MPEG-4
Format profile : Base Media / Version 2
Codec ID : mp42
File size : 1.13 GiB
Duration : 1h 54mn
Overall bit rate mode : Variable
Overall bit rate : 1 417 Kbps
Encoded date : UTC 2017-01-23 21:11:55
Tagged date : UTC 2017-01-23 21:11:55
gsst : 0
gstd : 6864816
Video
ID : 1
Format : AVC
Format/Info : Advanced Video Codec
Format profile : High@L3.1
Format settings, CABAC : Yes
Format settings, ReFrames : 1 frame
Codec ID : avc1
Codec ID/Info : Advanced Video Coding
Duration : 1h 54mn
Bit rate : 1 222 Kbps
Maximum bit rate : 5 421 Kbps
Width : 1 280 pixels
Height : 720 pixels
Display aspect ratio : 16:9
Frame rate mode : Variable
Frame rate : 29.970 fps
Minimum frame rate : 29.970 fps
Maximum frame rate : 30.273 fps
Color space : YUV
Chroma subsampling : 4:2:0
Bit depth : 8 bits
Scan type : Progressive
Bits/(Pixel*Frame) : 0.044
Stream size : 1 000 MiB (86%)
Tagged date : UTC 2017-01-23 21:12:54
Color range : Limited
Color primaries : BT.709
Transfer characteristics : BT.709
Matrix coefficients : BT.709
Audio
ID : 2
Format : AAC
Format/Info : Advanced Audio Codec
Format profile : LC
Codec ID : 40
Duration : 1h 54mn
Bit rate mode : Variable
Bit rate : 192 Kbps
Maximum bit rate : 203 Kbps
Channel(s) : 2 channels
Channel positions : Front: L R
Sampling rate : 44.1 KHz
Compression mode : Lossy
Stream size : 157 MiB (14%)
Title : IsoMedia File Produced by Google, 5-11-2011
Language : Russian
Encoded date : UTC 2017-01-23 21:12:28
Tagged date : UTC 2017-01-23 21:12:54
General
Complete name : Q:\Алгоритм на миллион\Алгоритм на миллион.pdf
Format : PDF
Format version : 1.5
File size : 251 KiB
Text
Format : PDF
General
Complete name : Q:\Алгоритм на миллион\Алгоритм на миллион.torrent
File size : 11.6 KiB
Скриншоты:
Скачать .torrent

Для того, чтобы скачать торрент-файл

Иван Коваль-Зайцев - Аглоритм на миллион (2017)

с нашего сайта, Вам необходимо Войти на сайт под своим логином! Если у Вас ещё нет логина, тогда Вам нужно сначала Зарегистрироваться!

Как скачивать? · Что такое торрент? · Рейтинг и ограничения

Показать сообщения:    
Ответить на тему

Иван Коваль-Зайцев - Аглоритм на миллион (2017) скачать торрент (torrent), видеоуроки, тренинги, обучающее видео и видеокурсы

Текущее время: Сегодня 02:57

Часовой пояс: GMT + 4



Вы не можете начинать темы
Вы не можете отвечать на сообщения
Вы не можете редактировать свои сообщения
Вы не можете удалять свои сообщения
Вы не можете голосовать в опросах
Вы не можете прикреплять файлы к сообщениям
Вы не можете скачивать файлы