Димон Чёрёмушкин - Инвестиции в криптовалюты (2017)

Ответить на тему
 
Автор Сообщение

Yulya ®

Димон Чёрёмушкин | Инвестиции в криптовалюты (2017) PCRec - Автор (режиссер): Димон Чёрёмушкин
Жанр: Трейдинг,криптовалюты,инвестирование
Описание:
Криптовалюта — цифровой актив, учёт которого децентрализован. Функционирование данных систем происходит при помощи распределённой компьютерной сети. При этом информация о транзакциях может не шифроваться и быть доступна в открытом виде. Для гарантирования неизменности цепочки блоков базы транзакций используется криптография. Термин закрепился вследствие статьи o Bitcoin «Crypto currency» (Криптографическая валюта), опубликованной в 2011 году в журнале Forbes. Сам же автор Bitcoin, как и многие другие, использовал термин «электронная наличность» (Electronic cash).

Из чего состоит курс:

-Как это работает. Основы блок-чейна, почему это надежно
-Основные виды валют. Какие криптовалюты самые перспективные и интересные сейчас
-Основные биржи. Где торгуются криптовалюты. Основные биржи и обменники
-Как хранить. Все основные способы сберечь ваши инвестиции от хакерских атак
-Какие перспективы. Стоит ли сейчас вкладывать в это дело или подождать? Или отказаться?
-Какие риски. Какие риски несет в себе любая криптовалюта. Как не потерять
-Где торгуются в России. Как купить криптовалюту в России частному инвестору
Изучив этот курс, вы станете лучше понимать работу криптовалют. Узнаете где и как можно ее покупать. Какие риски в себе она несет и какой ее потенциал. Видео курс + дополнительные материалы. Первый курс по криптовалютам в России.
Продолжительность: 02:35:49
Качество видео: PCRec
Видео: AVC/H.264, 1194x670, ~219kbps
Аудио: AAC, 2 ch, 197kbps

Mediainfo:

Video: MPEG4 Video 1194x670 30fps 219kbps [V: mpeg4 simple profile, yuv420p, 1194x670, 219 kb/s]
Audio: AAC 44100Hz stereo 197kbps [A: SoundHandler (aac lc, 44100 Hz, stereo, 197 kb/s)]
Format : MPEG-4
Format profile : Base Media
Codec ID : isom (isom/iso2/mp41)
File size : 64.2 MiB
Duration : 21 min 12 s
Overall bit rate mode : Constant
Overall bit rate : 423 kb/s
Writing application : Lavf57.25.100
Video
ID : 1
Format : MPEG-4 Visual
Format profile : Simple@L1
Format settings, BVOP : No
Format settings, QPel : No
Format settings, GMC : No warppoints
Format settings, Matrix : Default (H.263)
Codec ID : 20
Duration : 21 min 12 s
Bit rate mode : Constant
Bit rate : 219 kb/s
Width : 1 194 pixels
Height : 670 pixels
Display aspect ratio : 16:9
Frame rate mode : Variable
Frame rate : 30.000 FPS
Minimum frame rate : 15.000 FPS
Maximum frame rate : 30.000 FPS
Color space : YUV
Chroma subsampling : 4:2:0
Bit depth : 8 bits
Scan type : Progressive
Compression mode : Lossy
Bits/(Pixel*Frame) : 0.009
Stream size : 33.2 MiB (52%)
Writing library : Lavc57.24.102
Audio
ID : 2
Format : AAC
Format/Info : Advanced Audio Codec
Format profile : LC
Codec ID : 40
Duration : 21 min 12 s
Bit rate mode : Constant
Bit rate : 197 kb/s
Channel(s) : 2 channels
Channel positions : Front: L R
Sampling rate : 44.1 kHz
Frame rate : 43.066 FPS (1024 spf)
Compression mode : Lossy
Stream size : 30.0 MiB (47%)
Default : Yes
Alternate group : 1
Скриншоты:
Скачать .torrent

Для того, чтобы скачать торрент-файл

Димон Чёрёмушкин - Инвестиции в криптовалюты (2017)

с нашего сайта, Вам необходимо Войти на сайт под своим логином! Если у Вас ещё нет логина, тогда Вам нужно сначала Зарегистрироваться!

Как скачивать? · Что такое торрент? · Рейтинг и ограничения

Показать сообщения:    
Ответить на тему

Димон Чёрёмушкин - Инвестиции в криптовалюты (2017) скачать торрент (torrent), видеоуроки, тренинги, обучающее видео и видеокурсы

Текущее время: Сегодня 23:50

Часовой пояс: GMT + 4



Вы не можете начинать темы
Вы не можете отвечать на сообщения
Вы не можете редактировать свои сообщения
Вы не можете удалять свои сообщения
Вы не можете голосовать в опросах
Вы не можете прикреплять файлы к сообщениям
Вы не можете скачивать файлы