Димон Чёрёмушкин - Экспресс-курс по Опционам (2015)

Ответить на тему
 
Автор Сообщение

Yulya ®

Димон Чёрёмушкин | Экспресс-курс по Опционам (2015) PCRec -Автор (режиссер): Димон Чёрёмушкин
Жанр: Трейдинг
Описание:
Опционы, пожалуй, одни из самых интересных инструментов на финансовых рынках. Возможности и стратегии по истине невероятны. В отличии от обыденных фьючерсов, акций и прочих линейных инструментов, на опционах вы можете зарабатывать самым невероятным образом. Например, строить такие стратегии как: зарабатывать на том, что рынок останется в боковике, или что рынок будет двигаться в какую-либо сторону – или вниз или вверх, но для вас это не важно. Вы заработаете на любом движении рынка.
Звучит интригующе?
Опционы подходят отлично как для людей, у которых небольшие депозиты, так и для очень крупных игроков. Для первых – опционный рынок отличный шанс сделать из маленького депозита большой; для вторых – относительно безопасно добавить 5-10% к ежегодной доходности многомиллионного портфеля.
В умелых руках опционы могут приносить 10-100% в месяц на депозиты в 1 млн. рублей. Это уже не раз показывали конкурсы Лучший Частный инвестор, проводимый Московской Биржей.
Однажды начав использовать опционы в качестве финансового инструмента, вы не захотите возвращаться обратно к старым стратегиям.
Курс максимально наполнен информацией четко и по делу. Буквально за 2 часа вы сможете уверенно строить свои первые стратегии.
Продолжительность: 02:40:42
Качество видео: PCRec
Видео: MPEG-4, 1362x762, ~365kbps
Аудио: MP3, 2 ch, 191kbps

Mediainfo:

Код:
Video: MPEG4 Video 1362x762 30fps 365kbps [V: mpeg4 simple profile, yuv420p, 1362x762, 365 kb/s]
Audio: MP3 44100Hz stereo 191kbps [A: SoundHandler (mp3, 44100 Hz, stereo, 191 kb/s)]
Видео
Идентификатор                            : 1
Формат                                   : MPEG-4 Visual
Профиль формата                          : Simple@L1
Параметр BVOP формата                    : Нет
Параметр QPel формата                    : Нет
Параметр GMC формата                     : Без точки перехода
Параметр матрицы формата                 : Default (H.263)
Идентификатор кодека                     : 20
Продолжительность                        : 58 м.
Вид битрейта                             : Постоянный
Битрейт                                  : 366 Кбит/сек
Ширина                                   : 1362 пикселя
Высота                                   : 762 пикселя
Соотношение сторон                       : 16:9
Режим частоты кадров                     : Переменный
Частота кадров                           : 29,924 кадров/сек
Минимальная частота кадров               : 7,500 кадров/сек
Максимальная частота кадров              : 30,000 кадров/сек
Цветовое пространство                    : YUV
Субдискретизация насыщенности            : 4:2:0
Битовая глубина                          : 8 бит
Тип развёртки                            : Прогрессивная
Метод сжатия                             : С потерями
Бит/(Пиксели*Кадры)                      : 0.012
Размер потока                            : 152 Мбайт (65%)
Библиотека кодирования                   : Lavc56.26.100
Аудио
Идентификатор                            : 2
Формат                                   : MPEG Audio
Версия формата                           : Version 1
Профиль формата                          : Layer 3
Режим                                    : Joint stereo
Идентификатор кодека                     : 6B
Продолжительность                        : 58 м.
Вид битрейта                             : Постоянный
Битрейт                                  : 192 Кбит/сек
Каналы                                   : 2 канала
Частота                                  : 44,1 КГц
Метод сжатия                             : С потерями
Размер потока                            : 79,8 Мбайт (34%)
Библиотека кодирования                   : LAME3.99.5
Default                                  : Да
Alternate group                          : 1
Скачать .torrent

Для того, чтобы скачать торрент-файл

Димон Чёрёмушкин - Экспресс-курс по Опционам (2015)

с нашего сайта, Вам необходимо Войти на сайт под своим логином! Если у Вас ещё нет логина, тогда Вам нужно сначала Зарегистрироваться!

Как скачивать? · Что такое торрент? · Рейтинг и ограничения

Показать сообщения:    
Ответить на тему

Димон Чёрёмушкин - Экспресс-курс по Опционам (2015) скачать торрент (torrent), видеоуроки, тренинги, обучающее видео и видеокурсы

Текущее время: Сегодня 12:00

Часовой пояс: GMT + 4



Вы не можете начинать темы
Вы не можете отвечать на сообщения
Вы не можете редактировать свои сообщения
Вы не можете удалять свои сообщения
Вы не можете голосовать в опросах
Вы не можете прикреплять файлы к сообщениям
Вы не можете скачивать файлы