Димон Чёрёмушкин - Торгуем акции с прибылью (2015)

Ответить на тему
 
Автор Сообщение

Yulya ®

Димон Чёрёмушкин | Торгуем акции с прибылью (2015) PCRec -Автор (режиссер): Димон Чёрёмушкин
Жанр: Трейдинг
Описание:
Торговля акциями может принципиальным образом отличаться от торговли другими инструментами (фьючерсами, валютами). На рынке акций оперируют иные игроки с принципиально отличными целями. Одними из крупнейших покупателей и продавцов акций являются пенсионные фонды, управляющие компании и хэдж-фонды. В то же самое время, эти игроки стараются держаться подальше от фьючерсных или валютных рынков!
Но почему?
Потому что их основной целью является долгосрочный и стабильный доход, в то же самое время игрокам на фьючерсах хочется всего и сразу. Но как показывает практика – долгосрочные инвесторы всегда зарабатывают, в то же самое время лишь 3% краткосрочных активных трейдеров могут получить доход от своих операций.
В этом экспресс-курсе я покажу вам сразу 2 стороны торговли акциями. Мы немного поговорим о том, как получать с помощью акций стабильный дивидендных доход. И безусловно более плотно поговорим о краткосрочных спекуляциях, в которых я преуспел за последние годы.
К сожалению, на рынок акций новички редко обращают свое внимание. А именно здесь и кроются основные возможности для заработка!
Продолжительность: 04:06:36
Качество видео: PCRec
Видео: AVC/H.264, 1280x720, ~450kbps
Аудио: AAC, 2 ch, 147kbps

Mediainfo:

Код:
Video: MPEG4 Video (H264) 1280x720 30fps 450kbps [V: L-SMASH Video Handler (h264 high L3.1, yuv420p, 1280x720, 450 kb/s)]
Audio: AAC 48000Hz stereo 147kbps [A: L-SMASH Audio Handler (aac lc, 48000 Hz, stereo, 147 kb/s)]
Видео
Идентификатор                            : 1
Формат                                   : AVC
Формат/Информация                        : Advanced Video Codec
Профиль формата                          : High@L3.1
Параметр CABAC формата                   : Да
Параметр ReFrames формата                : 5 кадров
Идентификатор кодека                     : avc1
Идентификатор кодека/Информация          : Advanced Video Coding
Продолжительность                        : 1 ч. 15 м.
Битрейт                                  : 320 Кбит/сек
Ширина                                   : 1280 пикселей
Высота                                   : 720 пикселей
Соотношение сторон                       : 16:9
Режим частоты кадров                     : Постоянный
Частота кадров                           : 30,000 кадров/сек
Цветовое пространство                    : YUV
Субдискретизация насыщенности            : 4:2:0
Битовая глубина                          : 8 бит
Тип развёртки                            : Прогрессивная
Бит/(Пиксели*Кадры)                      : 0.012
Размер потока                            : 172 Мбайт (68%)
Библиотека кодирования                   : x264 core 148 r11 7599210
Настройки программы                      : cabac=1 / ref=5 / deblock=1:0:0 / analyse=0x3:0x113 / me=umh / subme=8 / psy=1 / psy_rd=1.00:0.00 / mixed_ref=1 / me_range=16 / chroma_me=1 / trellis=1 / 8x8dct=1 / cqm=0 / deadzone=21,11 / fast_pskip=1 / chroma_qp_offset=-2 / threads=22 / lookahead_threads=3 / sliced_threads=0 / nr=0 / decimate=1 / interlaced=0 / bluray_compat=0 / stitchable=1 / constrained_intra=0 / bframes=3 / b_pyramid=2 / b_adapt=2 / b_bias=0 / direct=3 / weightb=1 / open_gop=0 / weightp=2 / keyint=infinite / keyint_min=30 / scenecut=40 / intra_refresh=0 / rc_lookahead=50 / rc=crf / mbtree=1 / crf=20.0 / qcomp=0.60 / qpmin=5 / qpmax=69 / qpstep=4 / vbv_maxrate=2750 / vbv_bufsize=7500 / crf_max=0.0 / nal_hrd=none / filler=0 / ip_ratio=1.40 / aq=1:1.00
Дата кодирования                         : UTC 2016-01-10 16:36:21
Дата пометки                             : UTC 2016-01-10 16:36:21
Цветовой диапазон                        : Limited
Основные цвета                           : BT.709
Характеристики трансфера                 : BT.709
Коэффициенты матрицы                     : BT.709
Аудио
Идентификатор                            : 2
Формат                                   : AAC
Формат/Информация                        : Advanced Audio Codec
Профиль формата                          : LC
Идентификатор кодека                     : 40
Продолжительность                        : 1 ч. 15 м.
Вид битрейта                             : Переменный
Битрейт                                  : 147 Кбит/сек
Каналы                                   : 2 канала
Расположение каналов                     : Front: L R
Частота                                  : 48,0 КГц
Частота кадров                           : 46,875 кадров/сек (1024 spf)
Метод сжатия                             : С потерями
Размер потока                            : 79,1 Мбайт (31%)
Дата кодирования                         : UTC 2016-01-10 16:36:21
Дата пометки                             : UTC 2016-01-10 16:36:21
Скачать .torrent

Для того, чтобы скачать торрент-файл

Димон Чёрёмушкин - Торгуем акции с прибылью (2015)

с нашего сайта, Вам необходимо Войти на сайт под своим логином! Если у Вас ещё нет логина, тогда Вам нужно сначала Зарегистрироваться!

Как скачивать? · Что такое торрент? · Рейтинг и ограничения

Показать сообщения:    
Ответить на тему

Димон Чёрёмушкин - Торгуем акции с прибылью (2015) скачать торрент (torrent), видеоуроки, тренинги, обучающее видео и видеокурсы

Текущее время: Сегодня 06:47

Часовой пояс: GMT + 4



Вы не можете начинать темы
Вы не можете отвечать на сообщения
Вы не можете редактировать свои сообщения
Вы не можете удалять свои сообщения
Вы не можете голосовать в опросах
Вы не можете прикреплять файлы к сообщениям
Вы не можете скачивать файлы