Димон Чёрёмушкин - Скальпинг на FORTS от победителя ЛЧИ на Московской Бирже (2014)

Ответить на тему
 
Автор Сообщение

Yulya ®

Димон Чёрёмушкин | Скальпинг на FORTS от победителя ЛЧИ на Московской Бирже (2014) PCRec -Автор (режиссер): Димон Чёрёмушкин
Жанр: Трейдинг
Описание:
ЧТО ВХОДИТ В КУРС:
1. Стратегия, по которой я смог заработать более 1204% за два месяца конкурса, или более 300 тыс. руб. с первоначальным депозитом всего в 30 тысяч! Конкурс Лучший Частный Инвестор проводится Московской биржей с 2003 года. Мой результат официально подтвержден и его можно найти на сайте биржи. Эта стратегия принесла мне за два последних года более 5 000 000 руб., а всего с момента начала ее использования более 10 млн. Данные цифры подтверждены отчетами брокера, которые вы сможете увидеть в начала видео курса.
2. Курс изобилует десятками живых примеров трейдинга с применением и описанием каждой стратегии, которая была тщательно проработана и описана. К каждой стратегии есть несколько записанных с экрана вариантов реализации.
Продолжительность: 06:48:14
Качество видео: PCRec
Видео: AVC/H.264, 1584x798, ~149kbps
Аудио: AAC, 2 ch, 125kbps

Mediainfo:

Код:
Video: MPEG4 Video (H264) 1584x798 24fps 149kbps [V: Mainconcept MP4 Video Media Handler [eng] (h264 baseline L3.2, yuv420p, 1584x798, 149 kb/s)]
Audio: AAC 44100Hz stereo 125kbps [A: Mainconcept MP4 Sound Media Handler [eng] (aac lc, 44100 Hz, stereo, 125 kb/s)]
Видео
Идентификатор                            : 1
Формат                                   : AVC
Формат/Информация                        : Advanced Video Codec
Профиль формата                          : Baseline@L3.2
Параметр CABAC формата                   : Нет
Параметр ReFrames формата                : 3 кадра
Параметр GOP формата                     : M=1, N=120
Идентификатор кодека                     : avc1
Идентификатор кодека/Информация          : Advanced Video Coding
Продолжительность                        : 2 м. 31 с.
Продолжительность оригинала              : 2 м. 31 с.
Битрейт                                  : 58,4 Кбит/сек
Ширина                                   : 1584 пикселя
Высота                                   : 798 пикселей
Соотношение сторон                       : 1,985
Режим частоты кадров                     : Переменный
Частота кадров                           : 24,000 кадра/сек
Минимальная частота кадров               : 24,000 кадра/сек
Максимальная частота кадров              : 24,024 кадра/сек
Цветовое пространство                    : YUV
Субдискретизация насыщенности            : 4:2:0
Битовая глубина                          : 8 бит
Тип развёртки                            : Прогрессивная
Бит/(Пиксели*Кадры)                      : 0.002
Размер потока                            : 1,05 Мбайт (31%)
Размер потока оригинала                  : 1,05 Мбайт (31%)
Язык                                     : English
Дата кодирования                         : UTC 2013-11-28 03:51:06
Дата пометки                             : UTC 2013-11-28 03:51:06
Цветовой диапазон                        : Limited
mdhd_Duration                            : 151500
Аудио
Идентификатор                            : 2
Формат                                   : AAC
Формат/Информация                        : Advanced Audio Codec
Профиль формата                          : LC
Идентификатор кодека                     : 40
Продолжительность                        : 2 м. 31 с.
Продолжительность оригинала              : 2 м. 31 с.
Вид битрейта                             : Переменный
Битрейт                                  : 126 Кбит/сек
Максимальный битрейт                     : 160 Кбит/сек
Каналы                                   : 2 канала
Расположение каналов                     : Front: L R
Частота                                  : 44,1 КГц
Частота кадров                           : 43,066 кадра/сек (1024 spf)
Метод сжатия                             : С потерями
Размер потока                            : 2,27 Мбайт (67%)
Размер потока оригинала                  : 2,27 Мбайт (67%)
Язык                                     : English
Дата кодирования                         : UTC 2013-11-28 03:51:06
Дата пометки                             : UTC 2013-11-28 03:51:06
mdhd_Duration                            : 151533
Скриншоты:

История обновлений:

14.07.2017 - внесены небольшие поправки, дополнения.

Раздача ведётся путём добавления новых файлов:

Раздача ведётся путём добавления новых файлов; при каждом добавлении создаётся новый торрент. Чтобы начать докачку новых файлов, пользователям необходимо сделать следующее:
(1) остановить скачивание,
(2) удалить старый торрент у себя из клиента (имеющиеся файлы удалять не надо),
(3) скачать новый торрент и запустить его у себя в клиенте вместо старого, при этом указать клиенту путь в старую папку, куда и должно происходить скачивание новых файлов.
Ваш клиент при этом должен произвести хеширование (проверку) старой папки (если не производит сам - помогите ему сделать это), и будет докачивать только те файлы, которых у вас ещё нет. Старые файлы при этом не удаляются, а продолжают раздаваться!
Eсли вы уже удалили старые файлы, то предотвратить повторную закачку старых файлов можно, отжав галочку в соответствующих местах при запуске нового торрента. По возможности, желательно не удалять старые файлы как можно дольше, чтобы релизёр не только продолжал раздавать старые файлы, а смог сконцентрироваться на новых.
Скачать .torrent

Для того, чтобы скачать торрент-файл

Димон Чёрёмушкин - Скальпинг на FORTS от победителя ЛЧИ на Московской Бирже (2014)

с нашего сайта, Вам необходимо Войти на сайт под своим логином! Если у Вас ещё нет логина, тогда Вам нужно сначала Зарегистрироваться!

Как скачивать? · Что такое торрент? · Рейтинг и ограничения

Показать сообщения:    
Ответить на тему

Димон Чёрёмушкин - Скальпинг на FORTS от победителя ЛЧИ на Московской Бирже (2014) скачать торрент (torrent), видеоуроки, тренинги, обучающее видео и видеокурсы

Текущее время: Сегодня 15:08

Часовой пояс: GMT + 4



Вы не можете начинать темы
Вы не можете отвечать на сообщения
Вы не можете редактировать свои сообщения
Вы не можете удалять свои сообщения
Вы не можете голосовать в опросах
Вы не можете прикреплять файлы к сообщениям
Вы не можете скачивать файлы