Александр Вельский - Взрывной метод заработка (кредитный сектор) (2015)

Ответить на тему
 
Автор Сообщение

Yulya ®

Александр Вельский | Взрывной метод заработка (кредитный сектор) (2015) WEBRip [H.264]-Автор (режиссер): Александр Вельский
Производство: Россия
Жанр: Бизнес, банковское дело
Описание:
В самом начале я работал один, но через месяц нанял себе помощников, потому что не справлялся с работой. Мои помощники сейчас делают 95 % всей работы за меня, а я делаю только самое главное действие. В связи с этим мой рабочий день теперь составляет всего два часа в день и только этот бизнес приносит мне до 100 000 рублей чистой прибыли ежедневно. Вы тоже можете работать вначале в одиночку и зарабатывать легко 15 - 20 тысяч рублей ежедневно. А можете превратить этот бизнес в настоящий семейный бизнес, привлечь к работе родственников и выйти на заработок от 100 000 рублей в день. Вам не нужно снимать офис и регистрироваться как ИП или ООО. Все что Вам нужно - это компьютер, интернет и телефон. Еще желательно принетр и цифровой фотоаппарат. Но я думаю, что все это у Вас уже есть.
Продолжительность: 00:45:00
Качество видео: WEBRip
Видео: AVC/H.264, 1280x710, ~147 kbps
Аудио: AAC, 2 ch, 126 kbps, VBR

Mediainfo:

Код:
Общее
Полное имя                               : C:\Mediaslon\Взрывной метод заработка от 15 400 в день\Видео 1.mp4
Формат                                   : MPEG-4
Профиль формата                          : Base Media / Version 2
Идентификатор кодека                     : mp42
Размер файла                             : 43,4 Мбайт
Продолжительность                        : 22 м.
Режим общего битрейта                    : Переменный
Общий поток                              : 275 Кбит/сек
Дата кодирования                         : UTC 2015-05-24 04:13:53
Дата пометки                             : UTC 2015-05-24 04:13:53
Видео
Идентификатор                            : 1
Формат                                   : AVC
Формат/Информация                        : Advanced Video Codec
Профиль формата                          : Main@L3.1
Параметр CABAC формата                   : Да
Параметр ReFrames формата                : 3 кадра
Идентификатор кодека                     : avc1
Идентификатор кодека/Информация          : Advanced Video Coding
Продолжительность                        : 22 м.
Продолжительность оригинала              : 22 м.
Вид битрейта                             : Переменный
Битрейт                                  : 147 Кбит/сек
Ширина                                   : 1280 пикселей
Высота                                   : 710 пикселей
Соотношение сторон                       : 16:9
Режим частоты кадров                     : Переменный
Частота кадров                           : 30,000 кадров/сек
Минимальная частота кадров               : 30,000 кадров/сек
Максимальная частота кадров              : 30,030 кадров/сек
Стандарт вещания                         : NTSC
Цветовое пространство                    : YUV
Субдискретизация насыщенности            : 4:2:0
Битовая глубина                          : 8 бит
Тип развёртки                            : Прогрессивная
Бит/(Пиксели*Кадры)                      : 0.005
Размер потока                            : 23,2 Мбайт (53%)
Размер потока оригинала                  : 23,2 Мбайт (53%)
Язык                                     : English
Дата кодирования                         : UTC 2015-05-24 04:13:53
Дата пометки                             : UTC 2015-05-24 04:13:53
mdhd_Duration                            : 1321900
Аудио
Идентификатор                            : 2
Формат                                   : AAC
Формат/Информация                        : Advanced Audio Codec
Профиль формата                          : LC
Идентификатор кодека                     : 40
Продолжительность                        : 22 м.
Продолжительность оригинала              : 22 м.
Вид битрейта                             : Переменный
Битрейт                                  : 126 Кбит/сек
Максимальный битрейт                     : 192 Кбит/сек
Каналы                                   : 2 канала
Расположение каналов                     : Front: L R
Частота                                  : 44,1 КГц
Метод сжатия                             : С потерями
Размер потока                            : 19,8 Мбайт (46%)
Размер потока оригинала                  : 19,8 Мбайт (46%)
Язык                                     : English
Дата кодирования                         : UTC 2015-05-24 04:13:53
Дата пометки                             : UTC 2015-05-24 04:13:53
mdhd_Duration                            : 1321935
Скачать .torrent

Для того, чтобы скачать торрент-файл

Александр Вельский - Взрывной метод заработка (кредитный сектор) (2015)

с нашего сайта, Вам необходимо Войти на сайт под своим логином! Если у Вас ещё нет логина, тогда Вам нужно сначала Зарегистрироваться!

Как скачивать? · Что такое торрент? · Рейтинг и ограничения

Показать сообщения:    
Ответить на тему

Александр Вельский - Взрывной метод заработка (кредитный сектор) (2015) скачать торрент (torrent), видеоуроки, тренинги, обучающее видео и видеокурсы

Текущее время: Сегодня 00:01

Часовой пояс: GMT + 4



Вы не можете начинать темы
Вы не можете отвечать на сообщения
Вы не можете редактировать свои сообщения
Вы не можете удалять свои сообщения
Вы не можете голосовать в опросах
Вы не можете прикреплять файлы к сообщениям
Вы не можете скачивать файлы