Юрий Курилов, Юрий Черников - Прибыльные действия от А до Я (2015)

Ответить на тему
 
Автор Сообщение

Yulya ®

Юрий Курилов, Юрий Черников | Прибыльные действия от А до Я (2015) WEBRip [H.264/720p]- Автор (режиссер): Юрий Курилов, Юрий Черников
Производство: Россия
Жанр: Бизнес
Описание:
20% действий, которые дадут 80% денег в вашем бизнесе. Даже не 100, а 195 конкретных действий.
После этого интенсива вы будете точно знать, какие действия почти гарантированно принесут вам деньги, затратив минимум вашего времени и сил.
Когда я только начинал создавать свой бизнес то был одержим действиями, приносящими быстрые деньги.
Продолжительность: 00:31:00
Качество видео: WEBRip
Видео: AVC/H.264, 1280х720, ~712 kbps
Аудио: AAC, 2 ch, 317 kbps, VBR

Mediainfo:

Общее
Полное имя : C:\Users\Leonid\Documents\Бесплатный траф\ДЛЯ ТОРРЕНТОВ\[Юрий Курилов, Юрий Черников] Прибыльные действия от А до Я (2015)\Прибыльные действия\AutoPlay\Videos\01_Часть 1.mp4
Формат : MPEG-4
Профиль формата : Base Media / Version 2
Идентификатор кодека : mp42
Размер файла : 239 Мбайт
Продолжительность : 31 м.
Режим общего битрейта : Переменный
Общий поток : 1034 Кбит/сек
Дата кодирования : UTC 2015-06-26 22:02:26
Дата пометки : UTC 2015-06-26 22:02:28
©TIM : 00:00:00:00
©TSC : 25
©TSZ : 1
Видео
Идентификатор : 1
Формат : AVC
Формат/Информация : Advanced Video Codec
Профиль формата : Main@L4.1
Параметр CABAC формата : Да
Параметр ReFrames формата : 3 кадра
Идентификатор кодека : avc1
Идентификатор кодека/Информация : Advanced Video Coding
Продолжительность : 11 м.
Битрейт : 712 Кбит/сек
Ширина : 1280 пикселей
Высота : 720 пикселей
Соотношение сторон : 16:9
Режим частоты кадров : Постоянный
Частота кадров : 25,000 кадров/сек
Стандарт вещания : PAL
Цветовое пространство : YUV
Субдискретизация насыщенности : 4:2:0
Битовая глубина : 8 бит
Тип развёртки : Прогрессивная
Бит/(Пиксели*Кадры) : 0.031
Размер потока : 59,1 Мбайт (69%)
Язык : English
Дата кодирования : UTC 2015-06-26 22:02:26
Дата пометки : UTC 2015-06-26 22:02:26
Основные цвета : BT.709
Характеристики трансфера : BT.709
Коэффициенты матрицы : BT.709
Аудио
Идентификатор : 2
Формат : AAC
Формат/Информация : Advanced Audio Codec
Профиль формата : LC
Идентификатор кодека : 40
Продолжительность : 11 м.
Продолжительность оригинала : 11 м.
Вид битрейта : Переменный
Битрейт : 317 Кбит/сек
Максимальный битрейт : 364 Кбит/сек
Каналы : 2 канала
Расположение каналов : Front: L R
Частота : 48,0 КГц
Метод сжатия : С потерями
Размер потока : 26,3 Мбайт (31%)
Размер потока оригинала : 26,3 Мбайт (31%)
Язык : English
Дата кодирования : UTC 2015-06-26 22:02:26
Дата пометки : UTC 2015-06-26 22:02:26
Скачать .torrent

Для того, чтобы скачать торрент-файл

Юрий Курилов, Юрий Черников - Прибыльные действия от А до Я (2015)

с нашего сайта, Вам необходимо Войти на сайт под своим логином! Если у Вас ещё нет логина, тогда Вам нужно сначала Зарегистрироваться!

Как скачивать? · Что такое торрент? · Рейтинг и ограничения

Показать сообщения:    
Ответить на тему

Юрий Курилов, Юрий Черников - Прибыльные действия от А до Я (2015) скачать торрент (torrent), видеоуроки, тренинги, обучающее видео и видеокурсы

Текущее время: Сегодня 18:38

Часовой пояс: GMT + 4



Вы не можете начинать темы
Вы не можете отвечать на сообщения
Вы не можете редактировать свои сообщения
Вы не можете удалять свои сообщения
Вы не можете голосовать в опросах
Вы не можете прикреплять файлы к сообщениям
Вы не можете скачивать файлы