Окишев Игорь - Профит канал (2015)

Ответить на тему
 
Автор Сообщение

Yulya ®

Окишев Игорь | Профит канал (2015) PCRec- Автор (режиссер): Окишев Игорь
Жанр: Бизнес
Продолжительность: 00:43:20
Качество видео: PCRec
Видеокодек: mpeg2
Битрейт видео: ~305 Кбит/сек
Размер кадра: 640x359
Аудиокодек: MP3
Битрейт аудио: 320 kbps (CBR), 2 Ch, 44.1 KHz
Описание:
В видео рассказывается о торговле на рынке форекс по системе Профит канал.Скриншоты:

MediaInfo

Формат : AVI
Формат/Информация : Audio Video Interleave
Размер файла : 195 Мбайт
Продолжительность : 43 м.
Общий поток : 630 Кбит/сек
Видео
Идентификатор : 0
Формат : TechSmith
Идентификатор кодека : tscc
Идентификатор кодека/Информация : TechSmith Screen Capture
Продолжительность : 43 м.
Битрейт : 305 Кбит/сек
Ширина : 640 пикселей
Высота : 359 пикселей
Соотношение сторон : 16:9
Частота кадров : 15,000 кадров/сек
Бит/(Пиксели*Кадры) : 0.089
Размер потока : 94,6 Мбайт (48%)
Аудио
Идентификатор : 1
Формат : MPEG Audio
Версия формата : Version 1
Профиль формата : Layer 3
Идентификатор кодека : 55
Идентификатор кодека/Подсказка : MP3
Продолжительность : 43 м.
Вид битрейта : Постоянный
Битрейт : 320 Кбит/сек
Каналы : 2 канала
Частота : 44,1 КГц
Метод сжатия : С потерями
Размер потока : 99,2 Мбайт (51%)
Выравнивание : Разделение по промежуткам
Продолжительность промежутка : 1000 мс. (15,00 видеокадров)
Время предзагрузки промежутка : 750 мс.
Библиотека кодирования : LAME3.97 (beta)
Скачать .torrent

Для того, чтобы скачать торрент-файл

Окишев Игорь - Профит канал (2015)

с нашего сайта, Вам необходимо Войти на сайт под своим логином! Если у Вас ещё нет логина, тогда Вам нужно сначала Зарегистрироваться!

Как скачивать? · Что такое торрент? · Рейтинг и ограничения

Показать сообщения:    
Ответить на тему

Окишев Игорь - Профит канал (2015) скачать торрент (torrent), видеоуроки, тренинги, обучающее видео и видеокурсы

Текущее время: Сегодня 23:56

Часовой пояс: GMT + 4



Вы не можете начинать темы
Вы не можете отвечать на сообщения
Вы не можете редактировать свои сообщения
Вы не можете удалять свои сообщения
Вы не можете голосовать в опросах
Вы не можете прикреплять файлы к сообщениям
Вы не можете скачивать файлы