Алексей Верютин - 3 способа обойти конкурентов (2015)

Ответить на тему
 
Автор Сообщение

Yulya ®

Алексей Верютин | 3 способа обойти конкурентов (2015) CamRip- Автор (режиссер): Алексей Верютин
Жанр: Бизнес
Продолжительность: 02:00:19
Качество видео: CamRip
Видеокодек: AVC
Битрейт видео: ~1063 kbps
Размер кадра: 1280х720
Аудиокодек: AAC 2.0
Битрейт аудио: 192 kbps (CBR), 2 Ch, 44100 Hz
Описание:
Если посчитать все способы обхода конкурентов, то их можно насчитать гораздо больше чем 3. Но для малого бизнеса и начинающего предпринимателя многие из них слишком сложны в реализации.
3 способа обойти конкурентов. О чем пойдет речь?

Допустим:

  • Создание ВНЕКОНКУРЕНТНОГО ПРОДУКТА требует хорошего уровня подготовки и достаточного уровня знаний о всех имеющихся продуктах конкурентов. При этом этот способ можно считать ЯДРОМ СОЗДАНИЯ ВНЕКОНКУРЕНТНОГО ПРЕДЛОЖЕНИЯ.
  • Формирование полной ВНЕКОНКУРЕНТНОЙ БИЗНЕС МОДЕЛИ. Отличный способ, позволяющий вывести компанию на рынок с нулевым стартовым капиталом. Но при его реализации требуется время, которого, как правило, уже нет.
  • УТП, позиционирование и т.д. дадут эффект только тогда, когда продукт или бизнес модель будут во-первых ценностными, а во-вторых - уникальными.
  • Поэтому:

    На данном Вебинаре я расскажу Вам 3 способа, которые в совокупности или по одиночке дадут Вам самое важное - избыточный ресурс. Этот ресурс может быть денежным, временным, человеческим или каким-либо другим. Применив данные стратегии - Ваше предложение будет нести пользу для клиента и Вы станете отличаться от конкурентов, а продукт при прежних издержках можно будет сделать более дешёвым, качественным или имеющим дополнительные опции.
    Представьте, что с помощью таких способов один из моих учеников создал компанию по доставке пиццы не имея своих пекарен. Мой зоомагазин имел самую быструю доставку в С.-Петербурге в 2009 году (как же давно это было) не имея ни одного курьера или машины и таких примеров я могу приводить очень много (далее на вебинаре)
    Применяя данные способы в своем бизнесе - Вы бесплатно получите то, за что конкуренты платят деньги, тратят время и деньги. А значит их продукт априори менее выгодный для покупателя.

    MediaInfo:

    Общее
    Полное имя : D:\Загрузки\А. Вертюнин — 3 способа обойти конкурентов.mp4
    Формат : MPEG-4
    Профиль формата : Base Media / Version 2
    Идентификатор кодека : mp42
    Размер файла : 1,06 Гбайт
    Продолжительность : 2 ч. 0 м.
    Режим общего битрейта : Переменный
    Общий поток : 1258 Кбит/сек
    Дата кодирования : UTC 2015-05-14 19:49:17
    Дата пометки : UTC 2015-05-14 19:49:17
    gsst : 0
    gstd : 7219780
    gssd : B0AFCE7BCHH1431678693276947
    gshh : r15---sn-aigllnsk.googlevideo.com
    Видео
    Идентификатор : 1
    Формат : AVC
    Формат/Информация : Advanced Video Codec
    Профиль формата : High@L3.1
    Параметр CABAC формата : Да
    Параметр ReFrames формата : 1 кадр
    Параметр GOP формата : M=1, N=60
    Идентификатор кодека : avc1
    Идентификатор кодека/Информация : Advanced Video Coding
    Продолжительность : 2 ч. 0 м.
    Битрейт : 1063 Кбит/сек
    Максимальный битрейт : 1946 Кбит/сек
    Ширина : 1280 пикселей
    Высота : 720 пикселей
    Соотношение сторон : 16:9
    Режим частоты кадров : Постоянный
    Частота кадров : 30,000 кадров/сек
    Цветовое пространство : YUV
    Субдискретизация насыщенности : 4:2:0
    Битовая глубина : 8 бит
    Тип развёртки : Прогрессивная
    Бит/(Пиксели*Кадры) : 0.038
    Размер потока : 915 Мбайт (85%)
    Дата пометки : UTC 2015-05-14 19:51:15
    Аудио
    Идентификатор : 2
    Формат : AAC
    Формат/Информация : Advanced Audio Codec
    Профиль формата : LC
    Идентификатор кодека : 40
    Продолжительность : 2 ч. 0 м.
    Вид битрейта : Переменный
    Битрейт : 192 Кбит/сек
    Максимальный битрейт : 203 Кбит/сек
    Каналы : 2 канала
    Расположение каналов : Front: L R
    Частота : 44,1 КГц
    Метод сжатия : С потерями
    Размер потока : 165 Мбайт (15%)
    Заголовок : IsoMedia File Produced by Google, 5-11-2011
    Дата кодирования : UTC 2015-05-14 19:49:53
    Дата пометки : UTC 2015-05-14 19:51:15
    Скриншоты:
    Скачать .torrent

    Для того, чтобы скачать торрент-файл

    Алексей Верютин - 3 способа обойти конкурентов (2015)

    с нашего сайта, Вам необходимо Войти на сайт под своим логином! Если у Вас ещё нет логина, тогда Вам нужно сначала Зарегистрироваться!

    Как скачивать? · Что такое торрент? · Рейтинг и ограничения

    Показать сообщения:    
    Ответить на тему

    Алексей Верютин - 3 способа обойти конкурентов (2015) скачать торрент (torrent), видеоуроки, тренинги, обучающее видео и видеокурсы

    Текущее время: Сегодня 20:00

    Часовой пояс: GMT + 4



    Вы не можете начинать темы
    Вы не можете отвечать на сообщения
    Вы не можете редактировать свои сообщения
    Вы не можете удалять свои сообщения
    Вы не можете голосовать в опросах
    Вы не можете прикреплять файлы к сообщениям
    Вы не можете скачивать файлы