Lynda.com - Management Fundamentals / Основы Менеджмента (2013)

Ответить на тему
 
Автор Сообщение

Yulya ®

Lynda.com | Management Fundamentals / Основы Менеджмента (2013) PCRec [H.264/720p]- Автор (режиссер): Бритт Андреатта / Britt Andreatta
Жанр: Менеджмент
Продолжительность: 02:09:00
Качество видео: PCRec
Видеокодек: AVC
Битрейт видео: ~2125 kbps
Размер кадра: 1280х720
Аудиокодек: MP3
Битрейт аудио: 128 kbps (CBR), 2 Ch, 48000 Hz
Описание:
Если вы смотрите этот курс, вполне вероятно, что вы уже управленец или вам интересна тема управления. В этом курсе доктор Бритт Андреатта научит вас, как сделать ваше управление более эффективным. В курсе подробно будут описаны лучшие стратегии найма работников, правильная постановка цели, коучинг, управление разновозрастными сотрудниками и многое,многое другое.
В курс также включены дополнительные материалы, в виде 50 страниц с упражнениями.
Об авторе:
Брит Андретта — автор и сертифицированный тренер с 25 летним опытом преподавания лидерских навыков, она директор раздела курсов "Изучаем и развиваем" на Lynda.com

Темы:

  • Выбор стиля управления
  • Найм работников
  • Коучинг сотрудников
  • Организация служебной деятельности команды
  • Установление доверия
  • Разграничение полномочий
  • Управление удаленными сотрудниками
  • Основы правил HR и др.

MediaInfo:

Общее
Полное имя : D:\Загрузки\Lynda.com — Научитесь управлять\0.Вступление\0 1 Приветствие.avi
Формат : AVI
Формат/Информация : Audio Video Interleave
Размер файла : 24,0 Мбайт
Продолжительность : 1 м. 29 с.
Общий поток : 2265 Кбит/сек
Программа кодирования : VirtualDubMod 1.5.10.2 (build 2540/release)
Библиотека кодирования : VirtualDubMod build 2540/release
Видео
Идентификатор : 0
Формат : AVC
Формат/Информация : Advanced Video Codec
Профиль формата : Main@L3.1
Параметр CABAC формата : Да
Параметр ReFrames формата : 1 кадр
Параметр GOP формата : N=1
Идентификатор кодека : X264
Идентификатор кодека/Информация : XiWave GNU GPL x264 MPEG-4
Продолжительность : 1 м. 29 с.
Битрейт : 2125 Кбит/сек
Ширина : 1280 пикселей
Высота : 720 пикселей
Соотношение сторон : 16:9
Частота кадров : 29,970 кадров/сек
Цветовое пространство : YUV
Субдискретизация насыщенности : 4:2:0
Битовая глубина : 8 бит
Тип развёртки : Прогрессивная
Бит/(Пиксели*Кадры) : 0.077
Размер потока : 22,5 Мбайт (94%)
Аудио
Идентификатор : 1
Формат : MPEG Audio
Версия формата : Version 1
Профиль формата : Layer 3
Идентификатор кодека : 55
Идентификатор кодека/Подсказка : MP3
Продолжительность : 1 м. 28 с.
Вид битрейта : Постоянный
Битрейт : 128 Кбит/сек
Каналы : 2 канала
Частота : 48,0 КГц
Метод сжатия : С потерями
Размер потока : 1,36 Мбайт (6%)
Выравнивание : Соединение по промежуткам
Продолжительность промежутка : 34 мс. (1,01 видеокадр)
Время предзагрузки промежутка : 504 мс.
Скриншоты:
Скачать .torrent

Для того, чтобы скачать торрент-файл

Lynda.com - Management Fundamentals / Основы Менеджмента (2013)

с нашего сайта, Вам необходимо Войти на сайт под своим логином! Если у Вас ещё нет логина, тогда Вам нужно сначала Зарегистрироваться!

Как скачивать? · Что такое торрент? · Рейтинг и ограничения

Показать сообщения:    
Ответить на тему

Lynda.com - Management Fundamentals / Основы Менеджмента (2013) скачать торрент (torrent), видеоуроки, тренинги, обучающее видео и видеокурсы

Текущее время: Сегодня 11:36

Часовой пояс: GMT + 4



Вы не можете начинать темы
Вы не можете отвечать на сообщения
Вы не можете редактировать свои сообщения
Вы не можете удалять свои сообщения
Вы не можете голосовать в опросах
Вы не можете прикреплять файлы к сообщениям
Вы не можете скачивать файлы