Lynda.com - Solving Business Problems / Решение бизнес проблем (2014)

Ответить на тему
 
Автор Сообщение

Yulya ®

Lynda.com | Solving Business Problems / Решение бизнес проблем (2014) PCRec [H.264/720p]- Автор (режиссер): Майк Фиджлило / Mike Figliuolo
Жанр: Бизнес
Продолжительность: 00:39:00
Качество видео: PCRec
Видеокодек: AVC
Битрейт видео: ~1515 kbps
Размер кадра: 1280х720
Аудиокодек: MP3
Битрейт аудио: 256 kbps (CBR), 2 Ch, 44100 Hz
Описание:
У вас есть бизнес проблема, которую вы не можете решить? Майк Фиджлило представляет пятиступенчатый процесс решения проблем и прохождения через ежедневные внезапные и серьезные испытания. Научитесь искать проблему и определять ее, генерируйте возможные решения, определяйте лучшее решение и создавайте четкую рекомендацию по решению именно этой конкретной проблемы. Это тот же процесс, который Майк предложил многомиллиардным компаниям для решения их бизнес проблем. Изучите его, и вы сможете решить свои.

MediaInfo:

Общее
Полное имя : D:\Загрузки\Lynda.com — Решение бизнес проблем (Solving Business Problems)\01. Welcome.ru.mp4
Формат : AVI
Формат/Информация : Audio Video Interleave
Размер файла : 18,2 Мбайт
Продолжительность : 1 м. 24 с.
Общий поток : 1812 Кбит/сек
Видео
Идентификатор : 0
Формат : AVC
Формат/Информация : Advanced Video Codec
Профиль формата : Main@L3.1
Параметр CABAC формата : Да
Параметр ReFrames формата : 3 кадра
Идентификатор кодека : H264
Продолжительность : 1 м. 24 с.
Битрейт : 1515 Кбит/сек
Ширина : 1280 пикселей
Высота : 720 пикселей
Соотношение сторон : 16:9
Частота кадров : 29,970 кадров/сек
Стандарт вещания : NTSC
Цветовое пространство : YUV
Субдискретизация насыщенности : 4:2:0
Битовая глубина : 8 бит
Тип развёртки : Прогрессивная
Бит/(Пиксели*Кадры) : 0.055
Размер потока : 15,2 Мбайт (84%)
Цветовой диапазон : Limited
Аудио
Идентификатор : 1
Формат : MPEG Audio
Версия формата : Version 1
Профиль формата : Layer 3
Режим : Joint stereo
Расширение режима : MS Stereo
Идентификатор кодека : 55
Идентификатор кодека/Подсказка : MP3
Продолжительность : 1 м. 6 с.
Продолжительность оригинала : 1 м. 24 с.
Вид битрейта : Постоянный
Битрейт : 256 Кбит/сек
Каналы : 2 канала
Частота : 44,1 КГц
Метод сжатия : С потерями
Размер потока : 2,57 Мбайт (14%)
Выравнивание : Соединение по промежуткам
Продолжительность промежутка : 26 мс. (0,78 видеокадр)
Скриншоты:
Скачать .torrent

Для того, чтобы скачать торрент-файл

Lynda.com - Solving Business Problems / Решение бизнес проблем (2014)

с нашего сайта, Вам необходимо Войти на сайт под своим логином! Если у Вас ещё нет логина, тогда Вам нужно сначала Зарегистрироваться!

Как скачивать? · Что такое торрент? · Рейтинг и ограничения

Показать сообщения:    
Ответить на тему

Lynda.com - Solving Business Problems / Решение бизнес проблем (2014) скачать торрент (torrent), видеоуроки, тренинги, обучающее видео и видеокурсы

Текущее время: Сегодня 01:39

Часовой пояс: GMT + 4



Вы не можете начинать темы
Вы не можете отвечать на сообщения
Вы не можете редактировать свои сообщения
Вы не можете удалять свои сообщения
Вы не можете голосовать в опросах
Вы не можете прикреплять файлы к сообщениям
Вы не можете скачивать файлы