Александр Дырза - Таргетированная реклама Вконтакте от А до Я (Пакет Платиновый) (2015)

Ответить на тему
 
Автор Сообщение

Yulya ®

Александр Дырза | Таргетированная реклама Вконтакте от А до Я (Пакет Платиновый) (2015) PCRec- Автор (режиссер): Александр Дырза
Жанр: Бизнес, Вконтакте
Продолжительность: 12:44:07
Качество видео: PCRec
Видеокодек: AVC
Битрейт видео: ~2150 kbps
Размер кадра: 1280x720
Аудиокодек: AAC 2.0
Битрейт аудио: 192 kbps (CBR), 2 Ch, 44100 Hz
Описание:
Курс - это система, выработанная автором на практике.
Весь материал курса создан на основе 2 реальных реальных рекламных кампаний, созданных для курса.
Чему Вы научитесь:
Создавать эффективные объявления
Правильно подбирать целевую аудиторию
Создавать эффективные картинки для рекламы
Составлять эффективные заголовки и тексты.
Настраивать таргетинг на целевую аудиторию
Проводить сплит-тестирование объявлений
Снижать стоимость клика и повышать CTR
Анализировать рекламные кампании и овладеем вэб-аналитикой
Проводить тестовые рекламные кампании
Настраивать интеллектуальный сегментированный ретаргетинг
Собирать горячую целевую аудиторию с помощью Церебро-таргет.
Быстро проходить модерацию

Дополнительная информация:

Основной курс по таргету ВК
Бонус №1. Как создать красивый Landing Page для продажи товаров и услуг в сети Интернет
Бонус №2. Как окупить стоимость курса (8 способов)
Бонус №3. Как экономить до 20% от рекламного бюджета
Бонус №4. Церебро таргет. Как собрать ультра-горячую целевую аудиторию
Бонус №5. Готовый бизнес на продаже физ. товара 1 (сайт, инструкции, рекламные материалы, исследованная аудитория)ТОВАР ЕЩЁ НЕ ПРОДАВАЛСЯ В РУНЕТЕ!
Бонус №6. Готовый бизнес на продаже физ. товара 2 (сайт, инструкции, рекламные материалы, исследованная аудитория)ТОВАР ЕЩЁ НЕ ПРОДАВАЛСЯ В РУНЕТЕ!
Бонус №7. Авторская методика сплит-тестирования объявлений(Бомба!)
Бонус №8. Участие в мастер-группе (ответы на вопросы, разбор рекламных кампаний, рекомендации от автора)
Бонус №9. Личная скайп-консультация от автора по вашим рекламным кампаниям
Бонус №10. Пока секрет
Бонус:
1) Видео-курс "Первый шаг к деньгам в интернет торговле" (2 варианта - видео и pdf)
2) Видео-курс " Яндекс. Визитка за 7шагов или как не облажаться при выборе ниши для интернет-магазина"
3) Видео-курс "Принимаем WebМoney в интернет магазине" (2 варианта - видео и pdf)
4) Видео-уроки "Юридическое оформление интернет-торговли"
5) Книга "7 секретов составления объявления для Яндекс.Директ"
6) Специальный отчет: "Как пройти модерацию объявлений в Яндекс.Директ"

MediaInfo:

Общее
Формат : MPEG-4
Профиль формата : Base Media / Version 2
Идентификатор кодека : mp42
Режим общего битрейта : Переменный
Общий поток : 2345 Кбит/сек
Видео
Идентификатор : 1
Формат : AVC
Формат/Информация : Advanced Video Codec
Профиль формата : High@L3.1
Параметр CABAC формата : Да
Параметр ReFrames формата : 1 кадр
Параметр GOP формата : M=1, N=60
Идентификатор кодека : avc1
Идентификатор кодека/Информация : Advanced Video Coding
Битрейт : 2150 Кбит/сек
Максимальный битрейт : 5464 Кбит/сек
Ширина : 1280 пикселей
Высота : 720 пикселей
Соотношение сторон : 16:9
Режим частоты кадров : Постоянный
Частота кадров : 25,000 кадров/сек
Цветовое пространство : YUV
Субдискретизация насыщенности : 4:2:0
Битовая глубина : 8 бит
Тип развёртки : Прогрессивная
Бит/(Пиксели*Кадры) : 0.093
Размер потока : 66,7 Мбайт (92%)
Аудио
Идентификатор : 2
Формат : AAC
Формат/Информация : Advanced Audio Codec
Профиль формата : LC
Идентификатор кодека : 40
Вид битрейта : Переменный
Битрейт : 192 Кбит/сек
Максимальный битрейт : 202 Кбит/сек
Каналы : 2 канала
Расположение каналов : Front: L R
Частота : 44,1 КГц
Метод сжатия : С потерями
Размер потока : 5,96 Мбайт (8%)
Скриншоты:
Скачать .torrent

Для того, чтобы скачать торрент-файл

Александр Дырза - Таргетированная реклама Вконтакте от А до Я (Пакет Платиновый) (2015)

с нашего сайта, Вам необходимо Войти на сайт под своим логином! Если у Вас ещё нет логина, тогда Вам нужно сначала Зарегистрироваться!

Как скачивать? · Что такое торрент? · Рейтинг и ограничения

Показать сообщения:    
Ответить на тему

Александр Дырза - Таргетированная реклама Вконтакте от А до Я (Пакет Платиновый) (2015) скачать торрент (torrent), видеоуроки, тренинги, обучающее видео и видеокурсы

Текущее время: Сегодня 19:26

Часовой пояс: GMT + 4



Вы не можете начинать темы
Вы не можете отвечать на сообщения
Вы не можете редактировать свои сообщения
Вы не можете удалять свои сообщения
Вы не можете голосовать в опросах
Вы не можете прикреплять файлы к сообщениям
Вы не можете скачивать файлы