Евгений Новиков, Петроченков Антон - Идеальный Яндекс Директ (2014)

Ответить на тему
 
Автор Сообщение

Yulya ®

Евгений Новиков, Петроченков Антон | Идеальный Яндекс Директ (2014) CamRip- Автор (режиссер): Евгений Новиков, Петроченков Антон
Жанр: Контекстная реклама, Бизнес
Продолжительность: 04:32:56
Качество видео: CamRip
Видеокодек: AVC
Битрейт видео: ~2995 kbps
Размер кадра: 1280x720
Аудиокодек: AAC 2.0
Битрейт аудио: 192 Kbps, (CBR) 48000 Hz
Описание:
Пошаговый курс по настройке Яндекс Директ с гарантией результата. Эта методика сформирована только на основе многочасового опыта работы с Яндекс.Директ. Многих результатов можно достичь и не используя эту методику, просто, на мой взгляд, мой метод самый легкий и быстрый. Конечно же, можно и не использовать проверенную методику и действовать самостоятельно. Вполне возможно, тебе понадобится не 5 лет, как мне, а всего год, чтобы прийти к тем же выводам, что и я.

Дополнительная информация:

✔ Чему конкретно ты научишься на курсе?
    ● Собирать 10 000 ключевых слов в любой тематике.
    ● Писать вкусные и кликабельные тексты объявлений.
    ● Использовать методику непрерывного снижения цены клика.
    ● Секретным приемам Яндекс.Директа, которые не используют 95% твоих конкурентов.
    ● Делать правильные сплит тесты для получения максимально дешевых клиентов.
    ● Анализировать отчеты Метрики и выбирать наиболее прибыльные стратегии работы с контекстной рекламой.
✔ Фактический результат:
    ● CTR рекламы на поиске 4-20%
    ● Доход с Яндекс.Директ от 240% до 1170%
    ● От 2 до 11 заявок ежедневно
    ● Увеличение продаж через интернет от 40 до 450%
Программа курса:
✔ Занятие 1
    ● Как правильно работать с контекстной рекламой в интернет
    ● Как получить 1000 ключевых слов в любой тематике
    ● Метод эффективного сбора ключевых слов
    ● Результат: Целевое семантическое ядро из тысяч ключевых слов всего за 4 часа.
✔ Занятие 2
    ● Тексты объявлений, которые приводят покупателей, а не клики
    ● Реклама должна окупаться: расчет цены клика
    ● 13 правильных настроек рекламной кампании
    ● Результат: Эффективная рекламная кампания с высоким CTR.

MediaInfo:

Общее
Формат : MPEG-4
Профиль формата : Base Media / Version 2
Идентификатор кодека : mp42
Режим общего битрейта : Переменный
Общий поток : 3189 Кбит/сек
Видео
Идентификатор : 1
Формат : AVC
Формат/Информация : Advanced Video Codec
Профиль формата : Main@L3.2
Параметр CABAC формата : Да
Параметр ReFrames формата : 3 кадра
Параметр GOP формата : M=4, N=25
Идентификатор кодека : avc1
Идентификатор кодека/Информация : Advanced Video Coding
Битрейт : 2995 Кбит/сек
Ширина : 1280 пикселей
Высота : 720 пикселей
Соотношение сторон : 16:9
Режим частоты кадров : Переменный
Частота кадров : 25,000 кадров/сек
Минимальная частота кадров : 25,000 кадров/сек
Максимальная частота кадров : 25,025 кадров/сек
Стандарт вещания : PAL
Цветовое пространство : YUV
Субдискретизация насыщенности : 4:2:0
Битовая глубина : 8 бит
Тип развёртки : Прогрессивная
Бит/(Пиксели*Кадры) : 0.130
Размер потока : 2,83 Гбайт (94%)
Аудио
Идентификатор : 2
Формат : AAC
Формат/Информация : Advanced Audio Codec
Профиль формата : LC
Идентификатор кодека : 40
Вид битрейта : Переменный
Битрейт : 192 Кбит/сек
Максимальный битрейт : 282 Кбит/сек
Каналы : 2 канала
Расположение каналов : Front: L R
Частота : 48,0 КГц
Метод сжатия : С потерями
Размер потока : 183 Мбайт (6%)
Размер потока оригинала : 183 Мбайт (6%)
Скриншоты:
Скачать .torrent

Для того, чтобы скачать торрент-файл

Евгений Новиков, Петроченков Антон - Идеальный Яндекс Директ (2014)

с нашего сайта, Вам необходимо Войти на сайт под своим логином! Если у Вас ещё нет логина, тогда Вам нужно сначала Зарегистрироваться!

Как скачивать? · Что такое торрент? · Рейтинг и ограничения

Показать сообщения:    
Ответить на тему

Евгений Новиков, Петроченков Антон - Идеальный Яндекс Директ (2014) скачать торрент (torrent), видеоуроки, тренинги, обучающее видео и видеокурсы

Текущее время: Сегодня 16:15

Часовой пояс: GMT + 4



Вы не можете начинать темы
Вы не можете отвечать на сообщения
Вы не можете редактировать свои сообщения
Вы не можете удалять свои сообщения
Вы не можете голосовать в опросах
Вы не можете прикреплять файлы к сообщениям
Вы не можете скачивать файлы