Наталия Македа - Микростоковая империя 5.0 (2014)

Ответить на тему
 
Автор Сообщение

Yulya ®

Наталия Македа | Микростоковая империя 5.0 (2014) PCRec- Автор (режиссер): Наталия Македа
Жанр: Микросток
Продолжительность: 16:11:19
Качество видео: PCRec
Видеокодек: AVC
Битрейт видео: ~25fps 206kbps
Размер кадра: 1280x720
Аудиокодек: AAC
Битрейт аудио: 48000Hz stereo 147kbps
Описание:
Это записи одного из лучших практических интернет-курсов для тех, кто хочет получить первый доход от микростоков и настроить систему стабильных продаж.
В нем собраны конкретные рекомендации о том, ЧТО и КАК нужно сделать, чтобы не тратить время на микростоках впустую. Вы гарантированно добьетесь результата, так как описанная технология работает и у профессиональных фотографов, и у новичков.
Вы получаете подробную инструкцию, как наладить стабильный заработок на продаже фотографий на стоках. Вам остается пошагово выполнить все рекомендации.

Дополнительная информация:

01.mp4 - Модуль 1. Часть 1.
02.mp4 - Модуль 1. Часть 2.
03.mp4 - Модуль 2. Часть 1.
04.mp4 - Модуль 2. Часть 2.
05.mp4 - Модуль 3. Часть 1.
06.mp4 - Модуль 3. Часть 2.
07.mp4 - Модуль 4. Часть 1.
08.mp4 - Модуль 4. Часть 2.
09.mp4 - Модуль 5. Часть 1.
10.mp4 - Модуль 5. Часть 2.
11.mp4 - Модуль 6. Часть 1.
12.mp4 - Модуль 6. Часть 2.
13.mp4 - Модуль 7. Часть 1.
14.mp4 - Модуль 7. Часть 2.
15.mp4 - Модуль 8. Часть 1.
16.mp4 - Модуль 8. Часть 2.
17.mp4 - Модуль бонусный. Часть 1.
18.mp4 - Модуль бонусный. Часть 2.

MI

Общее
Полное имя : D:\Торренты\Микростоковая империя 5.0\01.mp4
Формат : MPEG-4
Профиль формата : Base Media / Version 2
Идентификатор кодека : mp42
Размер файла : 102 Мбайт
Продолжительность : 39 м.
Режим общего битрейта : Переменный
Общий поток : 358 Кбит/сек
Дата кодирования : UTC 2014-08-07 18:29:20
Дата пометки : UTC 2014-08-07 18:29:20
Видео
Идентификатор : 1
Формат : AVC
Формат/Информация : Advanced Video Codec
Профиль формата : High@L3.1
Параметр CABAC формата : Да
Параметр ReFrames формата : 4 кадра
Идентификатор кодека : avc1
Идентификатор кодека/Информация : Advanced Video Coding
Продолжительность : 39 м.
Битрейт : 207 Кбит/сек
Ширина : 1280 пикселей
Высота : 720 пикселей
Соотношение сторон : 16:9
Режим частоты кадров : Постоянный
Частота кадров : 25,000 кадров/сек
Цветовое пространство : YUV
Субдискретизация насыщенности : 4:2:0
Битовая глубина : 8 бит
Тип развёртки : Прогрессивная
Бит/(Пиксели*Кадры) : 0.009
Размер потока : 59,0 Мбайт (58%)
Библиотека кодирования : x264 core 142 r2453 ea0ca51
Настройки программы : cabac=1 / ref=3 / deblock=1:0:0 / analyse=0x3:0x113 / me=hex / subme=7 / psy=1 / psy_rd=1.00:0.00 / mixed_ref=1 / me_range=16 / chroma_me=1 / trellis=1 / 8x8dct=1 / cqm=0 / deadzone=21,11 / fast_pskip=1 / chroma_qp_offset=-2 / threads=48 / lookahead_threads=5 / sliced_threads=0 / nr=0 / decimate=1 / interlaced=0 / bluray_compat=0 / stitchable=1 / constrained_intra=0 / bframes=3 / b_pyramid=2 / b_adapt=1 / b_bias=0 / direct=1 / weightb=1 / open_gop=0 / weightp=2 / keyint=75 / keyint_min=25 / scenecut=40 / intra_refresh=0 / rc_lookahead=40 / rc=crf / mbtree=1 / crf=20.0 / qcomp=0.60 / qpmin=5 / qpmax=69 / qpstep=4 / vbv_maxrate=2750 / vbv_bufsize=7500 / crf_max=0.0 / nal_hrd=none / filler=0 / ip_ratio=1.40 / aq=1:1.00
Дата кодирования : UTC 2014-08-07 18:29:20
Дата пометки : UTC 2014-08-07 18:29:20
Аудио
Идентификатор : 2
Формат : AAC
Формат/Информация : Advanced Audio Codec
Профиль формата : LC
Идентификатор кодека : 40
Продолжительность : 39 м.
Вид битрейта : Переменный
Битрейт : 147 Кбит/сек
Каналы : 2 канала
Расположение каналов : Front: L R
Частота : 48,0 КГц
Метод сжатия : С потерями
Задержка видео : 80 мс.
Размер потока : 42,0 Мбайт (41%)
Дата кодирования : UTC 2014-08-07 18:29:20
Дата пометки : UTC 2014-08-07 18:29:20
Скриншоты:
Скачать .torrent

Для того, чтобы скачать торрент-файл

Наталия Македа - Микростоковая империя 5.0 (2014)

с нашего сайта, Вам необходимо Войти на сайт под своим логином! Если у Вас ещё нет логина, тогда Вам нужно сначала Зарегистрироваться!

Как скачивать? · Что такое торрент? · Рейтинг и ограничения

Показать сообщения:    
Ответить на тему

Наталия Македа - Микростоковая империя 5.0 (2014) скачать торрент (torrent), видеоуроки, тренинги, обучающее видео и видеокурсы

Текущее время: Сегодня 01:44

Часовой пояс: GMT + 4



Вы не можете начинать темы
Вы не можете отвечать на сообщения
Вы не можете редактировать свои сообщения
Вы не можете удалять свои сообщения
Вы не можете голосовать в опросах
Вы не можете прикреплять файлы к сообщениям
Вы не можете скачивать файлы