Max Twain - Insomnia (2017)

Ответить на тему
 
Автор Сообщение

Yulya ®

Max Twain | Insomnia (2017) PCRec [H.264/1080p-LQ] - Автор (режиссер): Max Twain
Жанр: Ретушь фото
Описание:
Очередной пошаговый видео-урок с процессом создания картины "INSOMNIA"
Детальный инструктаж на каждом этапе обработки
Данную методику пост-процессинга, можно использовать на любом снимке.
Навык владения Фотошопом не имеет значения
Продолжительность: 00:55:02
Качество видео: PCRec
Видео: AVC/H.264, 1920x1080, ~1241Kbps
Аудио: AAC, 2 ch, 125Kbps

Mediainfo:

General
Complete name : F:\MAX TWAIN - Insomnia (2017)\INSOMNIA.mp4
Format : MPEG-4
Format profile : Base Media / Version 2
Codec ID : mp42 (isom/iso2/avc1/mp41)
File size : 540 MiB
Duration : 55 min 2 s
Overall bit rate mode : Variable
Overall bit rate : 1 371 kb/s
Encoded date : UTC 2017-05-28 09:30:07
Tagged date : UTC 2017-05-28 09:52:29
Video
ID : 1
Format : AVC
Format/Info : Advanced Video Codec
Format profile : Main@L5
Format settings, CABAC : Yes
Format settings, ReFrames : 5 frames
Codec ID : avc1
Codec ID/Info : Advanced Video Coding
Duration : 55 min 2 s
Bit rate : 1 241 kb/s
Width : 1 920 pixels
Height : 1 080 pixels
Display aspect ratio : 16:9
Frame rate mode : Constant
Frame rate : 25.000 FPS
Color space : YUV
Chroma subsampling : 4:2:0
Bit depth : 8 bits
Scan type : Progressive
Bits/(Pixel*Frame) : 0.024
Stream size : 489 MiB (91%)
Encoded date : UTC 2017-05-28 09:30:07
Tagged date : UTC 2017-05-28 09:52:29
Color primaries : BT.709
Transfer characteristics : BT.709
Matrix coefficients : BT.709
Audio
ID : 2
Format : AAC
Format/Info : Advanced Audio Codec
Format profile : LC
Codec ID : 40
Duration : 55 min 2 s
Bit rate mode : Variable
Bit rate : 125 kb/s
Maximum bit rate : 186 kb/s
Channel(s) : 2 channels
Channel positions : Front: L R
Sampling rate : 44.1 kHz
Frame rate : 43.066 FPS (1024 spf)
Compression mode : Lossy
Stream size : 49.3 MiB (9%)
Encoded date : UTC 2017-05-28 09:30:07
Tagged date : UTC 2017-05-28 09:37:06
Скриншоты:
Скачать .torrent

Для того, чтобы скачать торрент-файл

Max Twain - Insomnia (2017)

с нашего сайта, Вам необходимо Войти на сайт под своим логином! Если у Вас ещё нет логина, тогда Вам нужно сначала Зарегистрироваться!

Как скачивать? · Что такое торрент? · Рейтинг и ограничения

Показать сообщения:    
Ответить на тему

Max Twain - Insomnia (2017) скачать торрент (torrent), видеоуроки, тренинги, обучающее видео и видеокурсы

Текущее время: Сегодня 04:50

Часовой пояс: GMT + 4



Вы не можете начинать темы
Вы не можете отвечать на сообщения
Вы не можете редактировать свои сообщения
Вы не можете удалять свои сообщения
Вы не можете голосовать в опросах
Вы не можете прикреплять файлы к сообщениям
Вы не можете скачивать файлы