Digital Tutors - Motion-графика в After Effects (2017)

Ответить на тему
 
Автор Сообщение

Yulya ®

Digital Tutors | Motion-графика в After Effects (2017) PCRec - Автор (режиссер): Digital Tutors
Жанр: After Effects
Описание:
Motion-графика - визуальное оформление для видео, телевидения и кино, созданное преимущественно при помощи компьютерных технологий. Если вы только собираетесь стать моушн-дизайнером или уже немного знакомы с After Effects, но пока находитесь в самом начале своего творческого пути, то этот курс предназначен специально для вас.
В процессе обучения вы узнаете все необходимое для того, чтобы сделать свои первые шаги в мир моушн-графики. Мы рассмотрим, как работают инструменты и эффекты в After Effects на примере небольших анимированных композиций. Поговорим о проблемах, с которыми новичкам бывает трудно справиться самостоятельно, и предложим свои варианты их решения, чтобы сэкономить ваше время.
В этом курсе мы расскажем о многих полезных приемах и техниках работы с программой, которые пригодятся даже опытным пользователям. Видео-уроки помогут не только освежить ваши знания, они также оптимизируют ваш рабочий процесс и значительно повысят его эффективность. Если вы серьезно настроены насчет моушн-графики, вы не можете пропустить этот курс!
Эта серия уроков не предполагает изучение всех инструментов After Effects. Однако новые знания позволят вам уже сегодня приступить к созданию своих первых анимационных проектов и построят прочный фундамент для дальнейшего профессионального роста. По окончании обучения вы обретете необходимые базовые навыки для работы с инструментами в After Effects, научитесь организовывать свой рабочий процесс и познакомитесь с основной терминологией. Вы также получите представление о понятиях пейсинга, тайминга и анимации и сможете по максимуму использовать возможности программы для реализации собственных идей.
Добавлены дополнительные материалы.
Продолжительность: 06:49:51
Качество видео: PCRec
Видео: AVC/H.264, 1280x720, ~2364 Кбит/сек
Аудио: MP3, 2 ch, 320 Кбит/сек

Mediainfo:

Общее
Формат : AVI
Формат/Информация : Audio Video Interleave
Размер файла : 29,2 Мбайт
Продолжительность : 1 м. 30 с.
Общий поток : 2714 Кбит/сек
Программа кодирования : Lavf57.40.101
Видео
Идентификатор : 0
Формат : AVC
Формат/Информация : Advanced Video Codec
Профиль формата : Main@L3.1
Настройки формата : CABAC / 1 Ref Frames
Параметр CABAC формата : Да
Параметр RefFrames формата : 1 кадр
Параметр GOP формата : M=1, N=25
Идентификатор кодека : H264
Продолжительность : 1 м. 30 с.
Битрейт : 2364 Кбит/сек
Ширина : 1280 пикселей
Высота : 720 пикселей
Соотношение сторон : 16:9
Режим частоты кадров : Переменный
Частота кадров : 119,880 (24/30) кадров/сек
Минимальная частота кадров : 23,976 кадра/сек
Максимальная частота кадров : 29,970 кадров/сек
Частота кадров в оригинале : 29,970 (30000/1001) кадров/сек
Цветовое пространство : YUV
Субдискретизация насыщенности : 4:2:0
Битовая глубина : 8 бит
Тип развёртки : Прогрессивная
Бит/(Пиксели*Кадры) : 0.021
Размер потока : 25,5 Мбайт (87%)
Аудио
Идентификатор : 1
Формат : MPEG Audio
Версия формата : Version 1
Профиль формата : Layer 3
Настройки формата : Joint stereo / MS Stereo
Идентификатор кодека : 55
Идентификатор кодека/Подсказка : MP3
Продолжительность : 1 м. 30 с.
Вид битрейта : Постоянный
Битрейт : 320 Кбит/сек
Каналы : 2 канала
Частота : 44,1 КГц
Метод сжатия : С потерями
Размер потока : 3,45 Мбайт (12%)
Выравнивание : Соединение по промежуткам
Продолжительность промежутка : 26 мс. (3,13 видеокадра)
Скриншоты:
Скачать .torrent

Для того, чтобы скачать торрент-файл

Digital Tutors - Motion-графика в After Effects (2017)

с нашего сайта, Вам необходимо Войти на сайт под своим логином! Если у Вас ещё нет логина, тогда Вам нужно сначала Зарегистрироваться!

Как скачивать? · Что такое торрент? · Рейтинг и ограничения

Показать сообщения:    
Ответить на тему

Digital Tutors - Motion-графика в After Effects (2017) скачать торрент (torrent), видеоуроки, тренинги, обучающее видео и видеокурсы

Текущее время: Сегодня 01:29

Часовой пояс: GMT + 4



Вы не можете начинать темы
Вы не можете отвечать на сообщения
Вы не можете редактировать свои сообщения
Вы не можете удалять свои сообщения
Вы не можете голосовать в опросах
Вы не можете прикреплять файлы к сообщениям
Вы не можете скачивать файлы