Digital-Tutors - Explaining Complex Topics with Motion Graphics in After Effects (2014)

Ответить на тему
 
Автор Сообщение

Yulya ®

Digital-Tutors | Explaining Complex Topics with Motion Graphics in After Effects (2014) PCRec [H.264/720p-LQ]- Автор (режиссер): Laura Smith
Производство: Digital-Tutors
Жанр: Работа с видео
Описание:
Просто о сложном с помощью моушн-графики и After Effects
В этой серии уроков мы шаг за шагом, от начала и до конца, рассмотрим процесс создания видео-роликов на сложные темы.
Очень часто люди обращаются к моушн-графике, когда им требуется объяснить трудные для понимания явления и процессы. В связи с этим возникают проблемы: с чего начать и как создать такое видео. В этом учебном курсе мы поговорим о том, как правильно работать со сценарием, как подбирать графику для проекта и как её затем лучше анимировать. Далее мы загрузим графические объекты в After Effects и начнём последовательно создавать анимацию, обращая внимание на то, чтобы за счёт контраста между движением и паузами получился понятный рассказ.
Продолжительность: 05:57:47
Качество видео: PCRec
Перевод: Дублированный, MelodyWi
Язык озвучки: Русский, Английский
Видео: AVC/H.264, 1280x720, ~89-547 Kbps
Аудио 1: MP3, 2 ch, 128 Kbps - Русский, дублированный (MelodyWi)
Аудио 2: AAC, 1 ch, 96 Kbps - Английский, оригинал

Mediainfo:

General
Complete name : 01. Introduction and Project Overview.mp4
Format : MPEG-4
Format profile : Base Media
Codec ID : isom
File size : 5.33 MiB
Duration : 1mn 11s
Overall bit rate : 626 Kbps
Video
ID : 1
Format : AVC
Format/Info : Advanced Video Codec
Format profile : Main@L3.1
Format settings, CABAC : Yes
Format settings, ReFrames : 4 frames
Codec ID : avc1
Codec ID/Info : Advanced Video Coding
Duration : 1mn 11s
Bit rate : 398 Kbps
Width : 1 280 pixels
Height : 720 pixels
Display aspect ratio : 16:9
Frame rate mode : Variable
Frame rate : 15.000 fps
Minimum frame rate : 14.925 fps
Maximum frame rate : 15.152 fps
Color space : YUV
Chroma subsampling : 4:2:0
Bit depth : 8 bits
Scan type : Progressive
Bits/(Pixel*Frame) : 0.029
Stream size : 3.37 MiB (63%)
Writing library : x264 core 130 r2274 c832fe9
Language : English
Audio #1
ID : 2
Format : MPEG Audio
Format version : Version 1
Format profile : Layer 3
Mode : Joint stereo
Mode extension : MS Stereo
Codec ID : 6B
Duration : 1mn 11s
Bit rate mode : Constant
Bit rate : 128 Kbps
Channel(s) : 2 channels
Sampling rate : 48.0 KHz
Compression mode : Lossy
Stream size : 1.09 MiB (20%)
Language : Russian
Audio #2
ID : 3
Format : AAC
Format/Info : Advanced Audio Codec
Format profile : LC
Codec ID : 40
Duration : 1mn 11s
Bit rate mode : Constant
Bit rate : 96.0 Kbps
Channel(s) : 2 channels
Channel(s)_Original : 1 channel
Channel positions : Front: C
Sampling rate : 32.0 KHz
Compression mode : Lossy
Stream size : 837 KiB (15%)
Language : English

Продолжение описания:

Вы также узнаете, как ускорить процесс работы над проектом, используя пресеты и горячие клавиши. Познакомитесь со множеством различных приёмов создания плавной анимации и также изучите несколько нетрадиционных способов использования эффектов, с которыми, возможно, уже раньше были знакомы, но никогда не применяли таким образом.
Вы можете пройти этот курс, если хотите научиться делать красивые анимационные ролики, которые требуют оригинального дизайнерского решения для понятного изложения материала.

Дополнительная информация:

Файлы упражнений прилагаются к курсу.
Дополнительная информация на официальном сайте (новая ссылка, оригинальная ссылка).
Как выбрать звуковую дорожку по умолчанию (ссылка).
Скриншоты:
Скачать .torrent

Для того, чтобы скачать торрент-файл

Digital-Tutors - Explaining Complex Topics with Motion Graphics in After Effects (2014)

с нашего сайта, Вам необходимо Войти на сайт под своим логином! Если у Вас ещё нет логина, тогда Вам нужно сначала Зарегистрироваться!

Как скачивать? · Что такое торрент? · Рейтинг и ограничения

Показать сообщения:    
Ответить на тему

Digital-Tutors - Explaining Complex Topics with Motion Graphics in After Effects (2014) скачать торрент (torrent), видеоуроки, тренинги, обучающее видео и видеокурсы

Текущее время: Сегодня 20:24

Часовой пояс: GMT + 4



Вы не можете начинать темы
Вы не можете отвечать на сообщения
Вы не можете редактировать свои сообщения
Вы не можете удалять свои сообщения
Вы не можете голосовать в опросах
Вы не можете прикреплять файлы к сообщениям
Вы не можете скачивать файлы