Валентина Вычужанина - Женщина. Инструкция по применению. Секс. Часть 3 (2016)

Ответить на тему
 
Автор Сообщение

Yulya ®

Валентина Вычужанина | Женщина. Инструкция по применению. Секс. Часть 3 (2016) CamRip [H.264] - Автор (режиссер): Валентина Вычужанина
Производство: Тренинговый центр Otnosheniya.ru
Жанр: Тренинг
Возрастное ограничение: 18+
Описание:
Если вы были на 1 и 2 части одноименного тренинга, а особенно, если не были — приходите! Будет много практических фишек и секретных техник для мужчин и женщин о самом сокровенном — о сексе!
Продолжительность: 11:04:45
Качество видео: CamRip
Видео: AVC/H.264, 480x360, ~234 kbps
Аудио: AAC, 2 ch, 96 kbps

Mediainfo:

Format                                   : MPEG-4
Format profile : Base Media / Version 2
Codec ID : mp42 (isom/mp42)
File size : 674 MiB
Duration : 4 h 43 min
Overall bit rate mode : Variable
Overall bit rate : 333 kb/s
Encoded date : UTC 2016-10-04 10:23:41
Tagged date : UTC 2016-10-04 10:23:41
gsst : 0
gstd : 16995288
Video
ID : 1
Format : AVC
Format/Info : Advanced Video Codec
Format profile : Baseline@L2.1
Format settings : 1 Ref Frames
Format settings, CABAC : No
Format settings, RefFrames : 1 frame
Format settings, GOP : M=1, N=60
Codec ID : avc1
Codec ID/Info : Advanced Video Coding
Duration : 4 h 43 min
Bit rate : 234 kb/s
Maximum bit rate : 695 kb/s
Width : 480 pixels
Height : 360 pixels
Display aspect ratio : 4:3
Frame rate mode : Variable
Frame rate : 24.867 FPS
Minimum frame rate : 8.333 FPS
Maximum frame rate : 25.000 FPS
Color space : YUV
Chroma subsampling : 4:2:0
Bit depth : 8 bits
Scan type : Progressive
Bits/(Pixel*Frame) : 0.055
Stream size : 475 MiB (70%)
Tagged date : UTC 2016-10-04 10:24:55
Audio
ID : 2
Format : AAC
Format/Info : Advanced Audio Codec
Format profile : LC
Codec ID : mp4a-40-2
Duration : 4 h 43 min
Bit rate mode : Variable
Bit rate : 96.0 kb/s
Maximum bit rate : 105 kb/s
Channel(s) : 2 channels
Channel positions : Front: L R
Sampling rate : 44.1 kHz
Frame rate : 43.066 FPS (1024 SPF)
Compression mode : Lossy
Stream size : 194 MiB (29%)
Title : IsoMedia File Produced by Google, 5-11-2011
Encoded date : UTC 2016-10-04 10:24:20
Tagged date : UTC 2016-10-04 10:24:55

Продолжение описания:

А теперь скажи, ты хочешь?
Получить максимум от жизни и повысить взаимные сексуальные ощущения в разы или даже в десятки раз? · Чувствовать себя супер-уверенно в постели и видеть рядом действительно удовлетворенную женщину с неприличным румянцем на щеках.
· Узнать, наконец, всю правду о клиторе, точке G и других интересных точках на загадочном женском теле, и понять, как с ними правильно взаимодействовать?
· Получить здесь и сейчас реальные работающие инструменты, которые позволят тебе стать любовником экстра-класса и свести с ума любую женщину – не важно, познакомились вы вчера в клубе или живете в браке 20 лет?
· Освоить техники, которые помогут удовлетворить и удивить даже самую взыскательную партнершу?
· Вернуть остроту ощущений в твои отношения с постоянной партнершей и заставить ее трепетать от возбуждения и желания исполнить свой супружеский долг?
· Прокачать раз и навсегда свою сексуальную жизнь и больше никогда не задаваться вопросом – с кем провести ночь и «понравилось ли ей?»
Похоже на рекламу «волшебных таблеток»? Любое мастерство строится на знаниях, навыках и таланте. Первые два элемента ты получишь и прокачаешь на тренинге. А талант в данном случае – это умение чувствовать партнершу, следить за ее реакциями и искреннее желание ее удовлетворить. Именно этим нюансом отличается инструкция к плазме от инструкции к девушке Тренинг «ЖЕНЩИНА. Инструкция по применению. Часть 3″.
Скриншоты:
Скачать .torrent

Для того, чтобы скачать торрент-файл

Валентина Вычужанина - Женщина. Инструкция по применению. Секс. Часть 3 (2016)

с нашего сайта, Вам необходимо Войти на сайт под своим логином! Если у Вас ещё нет логина, тогда Вам нужно сначала Зарегистрироваться!

Как скачивать? · Что такое торрент? · Рейтинг и ограничения

Показать сообщения:    
Ответить на тему

Валентина Вычужанина - Женщина. Инструкция по применению. Секс. Часть 3 (2016) скачать торрент (torrent), видеоуроки, тренинги, обучающее видео и видеокурсы

Текущее время: Сегодня 00:30

Часовой пояс: GMT + 4



Вы не можете начинать темы
Вы не можете отвечать на сообщения
Вы не можете редактировать свои сообщения
Вы не можете удалять свои сообщения
Вы не можете голосовать в опросах
Вы не можете прикреплять файлы к сообщениям
Вы не можете скачивать файлы