cmiVFX.com - Arnold for Houdini (2015)

Ответить на тему
 
Автор Сообщение

Yulya ®

cmiVFX.com | Arnold for Houdini (2015) PCRec [H.264/720p-LQ] - Автор (режиссер): Varomix
Производство: cmiVFX.com
Жанр: 3D графика
Описание:
Arnold в Houdini
cmiVFX представляет вам учебный курс по Houdini под названием "Arnold в Houdini 101". Эти две программы предоставляют удивительно мощный набор инструментов для сегодняшнего процесса VFX.
Houdini даёт отличнейшие VFX инструменты, а Arnold обеспечивает качество и стабильность рендера огромного количества обломков, вольюмов и симуляции жидкости без каких-либо проблем. Рендер Arnold просто берёт всё, что вы даёте ему, и выдаёт отличный результат. Сегодня тот день, когда вы можете начать использовать этот замечательный дуэт программ в своей работе.
Продолжительность: 02:55:03
Качество видео: PCRec
Перевод: Дублированный, Alex_cg
Язык озвучки: Русский, Английский
Видео: AVC/H.264, 1280x720, ~1468 Kbps
Аудио 1: AAC, 1 ch, 128 Kbps - Русский, дублированный (Alex_cg)
Аудио 2: AAC, 2 ch, 90 Kbps - Английский, оригинал

Mediainfo:

General
Complete name : 1. Arnold for Houdini.mp4
Format : MPEG-4
Format profile : Base Media
Codec ID : isom
File size : 2.07 GiB
Duration : 2h 55mn
Overall bit rate : 1 694 Kbps
Video
ID : 1
Format : AVC
Format/Info : Advanced Video Codec
Format profile : High 4:4:4 Predictive@L3.1
Format settings, CABAC : Yes
Format settings, ReFrames : 4 frames
Codec ID : avc1
Codec ID/Info : Advanced Video Coding
Duration : 2h 55mn
Bit rate : 1 468 Kbps
Nominal bit rate : 6 000 Kbps
Width : 1 280 pixels
Height : 720 pixels
Display aspect ratio : 16:9
Frame rate mode : Constant
Frame rate : 15.000 fps
Color space : YUV
Chroma subsampling : 4:4:4
Bit depth : 8 bits
Scan type : Progressive
Bits/(Pixel*Frame) : 0.106
Stream size : 1.79 GiB (87%)
Writing library : x264 core 129
Language : English
Audio #1
ID : 2
Format : AAC
Format/Info : Advanced Audio Codec
Format profile : LC
Codec ID : 40
Duration : 2h 55mn
Duration_LastFrame : 34ms
Bit rate mode : Constant
Bit rate : 128 Kbps
Channel(s) : 2 channels
Channel(s)_Original : 1 channel
Channel positions : Front: C
Sampling rate : 44.1 KHz
Compression mode : Lossy
Stream size : 160 MiB (8%)
Language : Russian
Audio #2
ID : 3
Format : AAC
Format/Info : Advanced Audio Codec
Format profile : LC
Codec ID : 40
Duration : 2h 55mn
Bit rate mode : Constant
Bit rate : 90.3 Kbps
Channel(s) : 2 channels
Channel(s)_Original : 6 channels
Channel positions : Front: L C R, Side: L R, LFE
Sampling rate : 48.0 KHz
Compression mode : Lossy
Stream size : 113 MiB (5%)
Language : English

Дополнительная информация:

Файлы упражнений прилагаются к курсу.
Дополнительная информация на офсайте.
Как выбрать звуковую дорожку по умолчанию (ссылка).
Скриншоты:

Дополнительные скриншоты:

Скачать .torrent

Для того, чтобы скачать торрент-файл

cmiVFX.com - Arnold for Houdini (2015)

с нашего сайта, Вам необходимо Войти на сайт под своим логином! Если у Вас ещё нет логина, тогда Вам нужно сначала Зарегистрироваться!

Как скачивать? · Что такое торрент? · Рейтинг и ограничения

Показать сообщения:    
Ответить на тему

cmiVFX.com - Arnold for Houdini (2015) скачать торрент (torrent), видеоуроки, тренинги, обучающее видео и видеокурсы

Текущее время: Сегодня 14:29

Часовой пояс: GMT + 4



Вы не можете начинать темы
Вы не можете отвечать на сообщения
Вы не можете редактировать свои сообщения
Вы не можете удалять свои сообщения
Вы не можете голосовать в опросах
Вы не можете прикреплять файлы к сообщениям
Вы не можете скачивать файлы