Lynda.com - CSS: Gradients (2013)

Ответить на тему
 
Автор Сообщение

Yulya ®

Lynda.com | CSS: Gradients (2013) PCRec [H.264/720p-LQ] - Автор (режиссер): Justin Seeley
Производство: Lynda.com
Жанр: Веб-дизайн
Описание:
Градиенты в CSS.
Автор курса знакомит нас с градиентами, скрытой мощью CSS, которые добавляют глубину и текстуры в веб-дизайн, сокращая время загрузки – это смотрится гораздо лучше, чем статические изображения.
Узнайте, как создавать универсальные линейные и радиальные градиенты, применять их к фоновым изображениям, к тексту и кнопкам, писать стили так, чтобы дизайн выглядел одинаково на разных платформах.
Также в курсе показано создание текстур металла, диагональных градиентов и повторяющихся узоров. И всё это время Джастин Сили демонстрирует применение градиентов и методов, выходящих за рамки основ.
Продолжительность: 01:13:47
Качество видео: PCRec
Перевод: Дублированный, Ruddy
Язык озвучки: Русский, Английский
Субтитры: Английские, Русские (отдельным файлом, формат "srt")
Видео: AVC/H.264, 1280x720, ~48-943 Kbps
Аудио 1: MP3, 2 ch, 128 Kbps - Русский, дублированный (Ruddy)
Аудио 2: AAC, 1 ch, 128 Kbps - Английский, оригинал

Mediainfo:

General
Complete name : 1_01. Examples of gradients in Design.mp4
Format : MPEG-4
Format profile : Base Media
Codec ID : isom
File size : 21.8 MiB
Duration : 4mn 34s
Overall bit rate : 668 Kbps
Video
ID : 1
Format : AVC
Format/Info : Advanced Video Codec
Format profile : Main@L3.1
Format settings, CABAC : Yes
Format settings, ReFrames : 3 frames
Codec ID : avc1
Codec ID/Info : Advanced Video Coding
Duration : 4mn 34s
Bit rate : 404 Kbps
Width : 1 280 pixels
Height : 720 pixels
Display aspect ratio : 16:9
Frame rate mode : Constant
Frame rate : 15.000 fps
Color space : YUV
Chroma subsampling : 4:2:0
Bit depth : 8 bits
Scan type : Progressive
Bits/(Pixel*Frame) : 0.029
Stream size : 13.2 MiB (61%)
Language : English
Audio #1
ID : 2
Format : MPEG Audio
Format version : Version 1
Format profile : Layer 3
Codec ID : 6B
Duration : 4mn 34s
Bit rate mode : Constant
Bit rate : 128 Kbps
Channel(s) : 2 channels
Sampling rate : 44.1 KHz
Compression mode : Lossy
Stream size : 4.18 MiB (19%)
Language : Russian
Audio #2
ID : 3
Format : AAC
Format/Info : Advanced Audio Codec
Format profile : LC
Codec ID : 40
Duration : 4mn 34s
Bit rate mode : Constant
Bit rate : 128 Kbps
Channel(s) : 2 channels
Channel(s)_Original : 1 channel
Channel positions : Front: C
Sampling rate : 44.1 KHz
Compression mode : Lossy
Stream size : 4.18 MiB (19%)
Language : English

Дополнительная информация:

Некоторые темы курса:
- анализ совместимости браузеров
- создание горизонтальных и вертикальных градиентов
- добавление остановок цвета
- изучение синтаксиса радиального градиента
- использование прозрачности
- применение градиентов к фоновым изображениям
- создание повторяющихся узоров, бесшовных текстур.
Файлы упражнений прилагаются к курсу.
Дополнительная информация на офсайте.
Как выбрать звуковую дорожку по умолчанию (ссылка).
Скриншоты:

Дополнительные скриншоты:

Скачать .torrent

Для того, чтобы скачать торрент-файл

Lynda.com - CSS: Gradients (2013)

с нашего сайта, Вам необходимо Войти на сайт под своим логином! Если у Вас ещё нет логина, тогда Вам нужно сначала Зарегистрироваться!

Как скачивать? · Что такое торрент? · Рейтинг и ограничения

Показать сообщения:    
Ответить на тему

Lynda.com - CSS: Gradients (2013) скачать торрент (torrent), видеоуроки, тренинги, обучающее видео и видеокурсы

Текущее время: Сегодня 23:44

Часовой пояс: GMT + 4



Вы не можете начинать темы
Вы не можете отвечать на сообщения
Вы не можете редактировать свои сообщения
Вы не можете удалять свои сообщения
Вы не можете голосовать в опросах
Вы не можете прикреплять файлы к сообщениям
Вы не можете скачивать файлы