HighLights - Веб-дизайн. Продвинутый уровень (2016)

Ответить на тему
 
Автор Сообщение

Yulya ®

HighLights | Веб-дизайн. Продвинутый уровень (2016) PCRec [H.264] - Автор (режиссер): HighLights
Жанр: Дизайн
Описание:
Этот курс для практикующих дизайнеров, которые хотят повысить качество своих работ и открыть для себя новые приемы в веб-дизайне.
Продолжительность: 19:52:27
Качество видео: PCRec
Видео: AVC/H.264, 1152-1920x720-1080, ~800-2761 Kbps
Аудио: AAC, 2 ch, 119-246 Kbps

Mediainfo:

Общее
Полное имя :\[Highlights] Веб-дизайн. Продвинутый уровень\Урок №1. Типичные ошибки веб-дизайнера\Офлайн (дополнительный материал)\Редизайн.mp4
Формат : MPEG-4
Профиль формата : Base Media
Идентификатор кодека : isom (isom/iso2/avc1/mp41)
Размер файла : 222 Мбайт
Продолжительность : 25 м. 7 с.
Общий поток : 1237 Кбит/сек
Программа кодирования : Lavf57.71.100
Видео
Идентификатор : 1
Формат : AVC
Формат/Информация : Advanced Video Codec
Профиль формата : Main@L3.1
Параметр CABAC формата : Да
Параметр RefFrames формата : 2 кадра
Параметр GOP формата : M=1, N=25
Идентификатор кодека : avc1
Идентификатор кодека/Информация : Advanced Video Coding
Продолжительность : 25 м. 7 с.
Битрейт : 1036 Кбит/сек
Ширина : 1152 пикселя
Высота : 720 пикселей
Соотношение сторон : 16:10
Режим частоты кадров : Постоянный
Частота кадров : 29,970 (30000/1001) кадров/сек
Цветовое пространство : YUV
Субдискретизация насыщенности : 4:2:0
Битовая глубина : 8 бит
Тип развёртки : Прогрессивная
Бит/(Пиксели*Кадры) : 0.042
Размер потока : 186 Мбайт (84%)
Аудио
Идентификатор : 2
Формат : AAC
Формат/Информация : Advanced Audio Codec
Профиль формата : LC
Идентификатор кодека : 40
Продолжительность : 25 м. 7 с.
Вид битрейта : Постоянный
Битрейт : 192 Кбит/сек
Каналы : 2 канала
Расположение каналов : Front: L R
Частота : 44,1 КГц
Частота кадров : 43,066 кадра/сек (1024 SPF)
Метод сжатия : С потерями
Размер потока : 35,0 Мбайт (16%)
Default : Да
AlternateGroup/String : 1
Общее
Полное имя : \[Highlights] Веб-дизайн. Продвинутый уровень\Урок №1. Типичные ошибки веб-дизайнера\Видео-запись урока\1-1.mp4
Формат : MPEG-4
Профиль формата : Base Media / Version 2
Идентификатор кодека : mp42 (mp41/isom)
Размер файла : 740 Мбайт
Продолжительность : 1 ч. 0 м.
Общий поток : 1700 Кбит/сек
Дата кодирования : UTC 2017-10-15 19:22:31
Дата пометки : UTC 2017-10-15 19:22:31
Видео
Идентификатор : 1
Формат : AVC
Формат/Информация : Advanced Video Codec
Профиль формата : Baseline@L3.1
Параметр CABAC формата : Нет
Параметр RefFrames формата : 2 кадра
Параметр GOP формата : M=1, N=30
Идентификатор кодека : avc1
Идентификатор кодека/Информация : Advanced Video Coding
Продолжительность : 1 ч. 0 м.
Продолжительность оригинала : 1 ч. 0 м.
Битрейт : 1575 Кбит/сек
Ширина : 1280 пикселей
Высота : 720 пикселей
Соотношение сторон : 16:9
Режим частоты кадров : Постоянный
Частота кадров : 29,970 (29970/1000) кадров/сек
Цветовое пространство : YUV
Субдискретизация насыщенности : 4:2:0
Битовая глубина : 8 бит
Тип развёртки : Прогрессивная
Бит/(Пиксели*Кадры) : 0.057
Размер потока : 686 Мбайт (93%)
Размер потока оригинала : 686 Мбайт (93%)
Дата кодирования : UTC 2017-10-15 19:22:31
Дата пометки : UTC 2017-10-15 19:22:31
mdhd_Duration : 3653316
Аудио
Идентификатор : 2
Формат : AAC
Формат/Информация : Advanced Audio Codec
Профиль формата : LC
Идентификатор кодека : 40
Продолжительность : 1 ч. 0 м.
Вид битрейта : Постоянный
Битрейт : 128 Кбит/сек
Каналы : 2 канала
Расположение каналов : Front: L R
Частота : 48,0 КГц
Частота кадров : 46,875 кадров/сек (1024 SPF)
Метод сжатия : С потерями
Размер потока : 53,3 Мбайт (7%)
Дата кодирования : UTC 2017-10-15 19:22:31
Дата пометки : UTC 2017-10-15 19:22:31
mdhd_Duration : 3653333
Общее
Полное имя : \[Highlights] Веб-дизайн. Продвинутый уровень\Урок №2. Технический дизайн\Офлайн уроки\Всё, для создания мудборда\Как создать мудборд в фотошопе.mp4
Формат : MPEG-4
Профиль формата : Base Media / Version 2
Идентификатор кодека : mp42 (mp42/isom)
Размер файла : 35,0 Мбайт
Продолжительность : 3 м. 25 с.
Режим общего битрейта : Переменный
Общий поток : 1430 Кбит/сек
Дата кодирования : UTC 2015-12-25 06:17:12
Дата пометки : UTC 2015-12-25 06:18:29
Видео
Идентификатор : 1
Формат : AVC
Формат/Информация : Advanced Video Codec
Профиль формата : Main@L4
Параметр CABAC формата : Да
Параметр RefFrames формата : 5 кадров
Параметр GOP формата : M=4, N=25
Идентификатор кодека : avc1
Идентификатор кодека/Информация : Advanced Video Coding
Продолжительность : 3 м. 25 с.
Битрейт : 1179 Кбит/сек
Ширина : 1440 пикселей
Высота : 900 пикселей
Соотношение сторон : 16:10
Режим частоты кадров : Постоянный
Частота кадров : 30,000 кадров/сек
Цветовое пространство : YUV
Субдискретизация насыщенности : 4:2:0
Битовая глубина : 8 бит
Тип развёртки : Прогрессивная
Бит/(Пиксели*Кадры) : 0.030
Размер потока : 28,8 Мбайт (82%)
Дата кодирования : UTC 2015-12-25 06:17:12
Дата пометки : UTC 2015-12-25 06:18:29
Основные цвета : BT.709
Характеристики трансфера : BT.709
Коэффициенты матрицы : BT.709
Аудио
Идентификатор : 2
Формат : AAC
Формат/Информация : Advanced Audio Codec
Профиль формата : LC
Идентификатор кодека : 40
Продолжительность : 3 м. 25 с.
Вид битрейта : Переменный
Битрейт : 246 Кбит/сек
Максимальный битрейт : 342 Кбит/сек
Каналы : 2 канала
Расположение каналов : Front: L R
Частота : 44,1 КГц
Частота кадров : 43,066 кадра/сек (1024 SPF)
Метод сжатия : С потерями
Размер потока : 6,02 Мбайт (17%)
Дата кодирования : UTC 2015-12-25 06:17:12
Дата пометки : UTC 2015-12-25 06:17:17
Общее
Полное имя : \[Highlights] Веб-дизайн. Продвинутый уровень\Урок №7. Адаптивный дизайн\Оффлайн\планшет.mp4
Формат : MPEG-4
Профиль формата : Base Media
Идентификатор кодека : isom (isom/iso2/avc1/mp41)
Размер файла : 388 Мбайт
Продолжительность : 25 м. 2 с.
Общий поток : 2166 Кбит/сек
Программа кодирования : Lavf57.56.100
Видео
Идентификатор : 1
Формат : AVC
Формат/Информация : Advanced Video Codec
Профиль формата : High@L4
Параметр CABAC формата : Да
Параметр RefFrames формата : 4 кадра
Идентификатор кодека : avc1
Идентификатор кодека/Информация : Advanced Video Coding
Продолжительность : 25 м. 2 с.
Битрейт : 2000 Кбит/сек
Ширина : 1920 пикселей
Высота : 1080 пикселей
Соотношение сторон : 16:9
Режим частоты кадров : Постоянный
Частота кадров : 23,976 (24000/1001) кадра/сек
Цветовое пространство : YUV
Субдискретизация насыщенности : 4:2:0
Битовая глубина : 8 бит
Тип развёртки : Прогрессивная
Бит/(Пиксели*Кадры) : 0.040
Размер потока : 358 Мбайт (92%)
Библиотека кодирования : x264 core 148 r2744 b97ae06
Настройки программы : cabac=1 / ref=1 / deblock=1:0:0 / analyse=0x3:0x113 / me=hex / subme=2 / psy=1 / psy_rd=1.00:0.00 / mixed_ref=0 / me_range=16 / chroma_me=1 / trellis=0 / 8x8dct=1 / cqm=0 / deadzone=21,11 / fast_pskip=1 / chroma_qp_offset=0 / threads=6 / lookahead_threads=2 / sliced_threads=0 / nr=0 / decimate=1 / interlaced=0 / bluray_compat=0 / constrained_intra=0 / bframes=3 / b_pyramid=2 / b_adapt=1 / b_bias=0 / direct=1 / weightb=1 / open_gop=0 / weightp=1 / keyint=250 / keyint_min=23 / scenecut=40 / intra_refresh=0 / rc_lookahead=10 / rc=cbr / mbtree=1 / bitrate=2000 / ratetol=1.0 / qcomp=0.60 / qpmin=0 / qpmax=69 / qpstep=4 / vbv_maxrate=2000 / vbv_bufsize=2000 / nal_hrd=none / filler=1 / ip_ratio=1.40 / aq=1:1.00
Аудио
Идентификатор : 2
Формат : AAC
Формат/Информация : Advanced Audio Codec
Профиль формата : LC
Идентификатор кодека : 40
Продолжительность : 25 м. 2 с.
Вид битрейта : Постоянный
Битрейт : 160 Кбит/сек
Каналы : 2 канала
Расположение каналов : Front: L R
Частота : 44,1 КГц
Частота кадров : 43,066 кадра/сек (1024 SPF)
Метод сжатия : С потерями
Размер потока : 28,7 Мбайт (7%)
Заголовок : Track1
Default : Да
AlternateGroup/String : 1

Подробный план занятий:

ЗАНЯТИЕ № 1. ТИПИЧНЫЕ ОШИБКИ ВЕБ-ДИЗАЙНЕРА.
— Основные отличия профи от среднего дизайнера
— Основные ошибки веб-дизайнера
— Ошибки в верстке текста
— Отсутствие единства стиля проекта
— Непродуманная композиция
— Ошибки в разработке функционала сайта
— Плохо подобранный контент
ДЗ: Сделать редизайн 2х произвольных главных экранов сайта.
ЗАНЯТИЕ № 2. ТЕХНИЧЕСКИЙ ДИЗАЙН: РЕТУШЬ, ЦВЕТОКОРРЕКЦИЯ, КОЛЛАЖИРОВАНИЕ.
— Подготовка изображений для макета
— Основные инструменты для ретуши в PhotoShop
— Основы цветокоррекции
— Способы обтравки объектов
— Коллажирование
ДЗ: Подобрать для своего будущего проекта фотографии и обработать их в одной стилистике, создать их них мудборд.
ЗАНЯТИЕ № 3. ДИЗАЙН ГЛАВНОЙ СТРАНИЦЫ.
— Иерархия в текстовых блоках
— Эффектная типографика
— Основные приемы размещения текста на фотографии
— Оформление объемного блока с текстом
— Композиция для блока “текст - фото/видео”
— Композиция для блока “текст - иконки”
— Основные ошибки в составлении футера
ДЗ: Нарисовать лендинг (главную страницу многостраничника) на свободную тематику.
ЗАНЯТИЕ № 4. ДИЗАЙН ВНУТРЕННИХ СТРАНИЦ И ВСПЛЫВАЮЩИХ ОКОН.
— Взаимодействие между страницами сайта
— Навигация на сайте
— Основные правила при создании меню
— Всплывающие окна
— Создание внутренней страницы “О нас”
— Создание внутренней страницы “Портфолио”
— Создание внутренней страницы “Контакты”
ДЗ: Нарисовать 1-2 внутренние страницы для многостраничника и оформить всплывающее окно.
ЗАНЯТИЕ № 5. ДИЗАЙН ИНТЕРНЕТ-МАГАЗИНА (ЧАСТЬ 1).
— Особенности дизайна интернет-магазина
— Главный экран интернет-магазина (меню, поисковая строка, корзина, баннеры)
— Создание раздела “каталог”
— Создание раздела “лидеры продаж”
— Создание раздела “партнеры”
— Создание футера для интернет-магазина
ДЗ: Нарисовать главную страницу интернет-магазина на свободную тематику.
ЗАНЯТИЕ № 6. ДИЗАЙН ИНТЕРНЕТ-МАГАЗИНА (ЧАСТЬ 2).
— Создание страницы “Карточка товара”
— Создание страницы “Корзина”
— Создание страницы “Доставка и оплата”
— Создание страницы “оформление заказа”
— Эффекты наведения (ховеры)
ДЗ: Нарисовать внутреннюю страницу для многостраничника и придумать эффекты наведения для элементов интерфейса.
ЗАНЯТИЕ № 7. ДИЗАЙН МОБИЛЬНОЙ ВЕРСИИ САЙТА. АДАПТИВНЫЙ ДИЗАЙН.
— Современные разрешения экранов
— Артборды (монтажные области)
— Правила “сжатия” контента для адаптивных макетов
— Создание дизайн-макета для планшета
— Создание дизайн-макета для смартфона
— Работа с приложением Adobe Preview CC
ДЗ: Создать адаптивный дизайн для своего проекта (либо лендинга, либо всего многостраничника).
Скриншоты:
Скачать .torrent

Для того, чтобы скачать торрент-файл

HighLights - Веб-дизайн. Продвинутый уровень (2016)

с нашего сайта, Вам необходимо Войти на сайт под своим логином! Если у Вас ещё нет логина, тогда Вам нужно сначала Зарегистрироваться!

Как скачивать? · Что такое торрент? · Рейтинг и ограничения

Показать сообщения:    
Ответить на тему

HighLights - Веб-дизайн. Продвинутый уровень (2016) скачать торрент (torrent), видеоуроки, тренинги, обучающее видео и видеокурсы

Текущее время: Сегодня 07:31

Часовой пояс: GMT + 4



Вы не можете начинать темы
Вы не можете отвечать на сообщения
Вы не можете редактировать свои сообщения
Вы не можете удалять свои сообщения
Вы не можете голосовать в опросах
Вы не можете прикреплять файлы к сообщениям
Вы не можете скачивать файлы