Ирина Никонова - Быстрый монтаж в Adobe Premiere (2017)

Ответить на тему
 
Автор Сообщение

Yulya ®

Ирина Никонова | Быстрый монтаж в Adobe Premiere (2017) PCRec [H.264/1080p-LQ]- Автор (режиссер): Ирина Никонова
Производство: amlab
Жанр: Обработка видео
Описание:
Этот курс для тех, кто хочет ускорить и оптимизировать свою работу в Adobe Premiere Pro.
После прохождения вы сможете эффективно организовать свою работу на компьютере и в самой программе.
Ира расскажет и покажет вам:
- как организовать процесс работы монтажера по папкам;
- как ускорить работу на слабом компьютере (работа с Proxy);
- как логично настроить интерфейс для быстрого монтажа;
- о новых фишках Premiere в работе со звуком (и покажет на примере!);
- как настроить Hotkeys (горячие клавиши) для быстрой работы;
- как правильно настроить multicam;
- как работать с обновленными титрами в Premiere.
Продолжительность: 02:16:46
Качество видео: PCRec
Видео: AVC/H.264, 1920x1080, ~1730 Kbps
Аудио: AAC, 2 ch, 256 Kbps

Mediainfo:

General
Complete name : E: Никонова Ирина - Быстрый монтаж в Adobe Premiere (2017)\01. Быстрый монтаж. Как упорядочить материал на жестком диске.mp4
Format : MPEG-4
Format profile : Base Media / Version 2
Codec ID : mp42 (mp42/mp41/isom/avc1)
File size : 109 MiB
Duration : 7 min 40 s
Overall bit rate mode : Variable
Overall bit rate : 1 990 kb/s
Encoded date : UTC 2017-08-29 20:07:32
Tagged date : UTC 2017-08-29 20:07:32
Video
ID : 1
Format : AVC
Format/Info : Advanced Video Codec
Format profile : High@L4
Format settings, CABAC : Yes
Format settings, ReFrames : 4 frames
Codec ID : avc1
Codec ID/Info : Advanced Video Coding
Duration : 7 min 40 s
Bit rate : 1 730 kb/s
Width : 1 920 pixels
Height : 1 080 pixels
Display aspect ratio : 16:9
Frame rate mode : Constant
Frame rate : 30.000 FPS
Color space : YUV
Chroma subsampling : 4:2:0
Bit depth : 8 bits
Scan type : Progressive
Bits/(Pixel*Frame) : 0.028
Stream size : 95.0 MiB (87%)
Writing library : x264 core 150 r10 df79067
Encoding settings : cabac=1 / ref=4 / deblock=1:0:0 / analyse=0x3:0x113 / me=hex / subme=8 / psy=1 / psy_rd=1.00:0.00 / mixed_ref=1 / me_range=16 / chroma_me=1 / trellis=2 / 8x8dct=1 / cqm=0 / deadzone=21,11 / fast_pskip=1 / chroma_qp_offset=-2 / threads=34 / lookahead_threads=5 / sliced_threads=0 / nr=0 / decimate=1 / interlaced=0 / bluray_compat=0 / stitchable=1 / constrained_intra=0 / bframes=3 / b_pyramid=2 / b_adapt=1 / b_bias=0 / direct=3 / weightb=1 / open_gop=0 / weightp=2 / keyint=infinite / keyint_min=30 / scenecut=40 / intra_refresh=0 / rc_lookahead=50 / rc=crf / mbtree=1 / crf=20.0 / qcomp=0.60 / qpmin=5 / qpmax=69 / qpstep=4 / vbv_maxrate=5500 / vbv_bufsize=15000 / crf_max=0.0 / nal_hrd=none / filler=0 / ip_ratio=1.40 / aq=1:1.00
Encoded date : UTC 2017-08-29 20:07:32
Tagged date : UTC 2017-08-29 20:07:32
Color range : Limited
Color primaries : BT.709
Transfer characteristics : BT.709
Matrix coefficients : BT.709
Audio
ID : 2
Format : AAC
Format/Info : Advanced Audio Codec
Format profile : LC
Codec ID : 40
Duration : 7 min 40 s
Bit rate mode : Variable
Bit rate : 256 kb/s
Channel(s) : 2 channels
Channel positions : Front: L R
Sampling rate : 48.0 kHz
Frame rate : 46.875 FPS (1024 spf)
Compression mode : Lossy
Stream size : 14.1 MiB (13%)
Скриншоты:
Скачать .torrent

Для того, чтобы скачать торрент-файл

Ирина Никонова - Быстрый монтаж в Adobe Premiere (2017)

с нашего сайта, Вам необходимо Войти на сайт под своим логином! Если у Вас ещё нет логина, тогда Вам нужно сначала Зарегистрироваться!

Как скачивать? · Что такое торрент? · Рейтинг и ограничения

Показать сообщения:    
Ответить на тему

Ирина Никонова - Быстрый монтаж в Adobe Premiere (2017) скачать торрент (torrent), видеоуроки, тренинги, обучающее видео и видеокурсы

Текущее время: Сегодня 20:35

Часовой пояс: GMT + 4



Вы не можете начинать темы
Вы не можете отвечать на сообщения
Вы не можете редактировать свои сообщения
Вы не можете удалять свои сообщения
Вы не можете голосовать в опросах
Вы не можете прикреплять файлы к сообщениям
Вы не можете скачивать файлы