Вячеслав Губанов - Кураторы. Контакты. Каналы. Ступень I. [ЗК-1] (2013)

Ответить на тему
 
Автор Сообщение

Yulya ®

Вячеслав Губанов | Кураторы. Контакты. Каналы. Ступень I. [ЗК-1]
(2013) DVDRip
- Автор (режиссер): Вячеслав Губанов
Производство: Россия
Жанр: Эзотерика
Описание:
Этот семинар для тех, кто уже чувствует, что реальность далеко не ограничивается лишь материальным миром. Для тех, кто хочет детально разобраться в физике тонко-материального пространства и эффективных способах контакта, общения и взаимодействия с ним.
ПРЕДУПРЕЖДЕНИЕ: Материалы имеют энерго-информационную защиту.
Рекомендуется для опытных эзотериков с хорошим заземлением. Остальным лучше покупать курс у автора без энерго-информационной защиты.
Продолжительность: 23:17:14
Качество видео: DVDRip
Видео: DivX 5, 768х576, ~763 Kbps
Аудио: MP3, 2 ch, 128 Kbps

Mediainfo:

Полное имя                               : C:\Users\Сергей\Downloads\Кураторы. Контакты. Каналы. Ступень I. (3К-1)\kurators_kiev_1_1.avi
Формат : AVI
Формат/Информация : Audio Video Interleave
Размер файла : 1,08 Гбайт
Продолжительность : 2 ч. 50 м.
Общий поток : 904 Кбит/сек
Программа кодирования : transcode-1.0.2
Видео
Идентификатор : 0
Формат : MPEG-4 Visual
Профиль формата : Simple@L1
Параметр BVOP формата : Нет
Параметр QPel формата : Нет
Параметр GMC формата : Без точки перехода
Параметр матрицы формата : Default (H.263)
Идентификатор кодека : DX50
Идентификатор кодека/Подсказка : DivX 5
Продолжительность : 2 ч. 50 м.
Битрейт : 763 Кбит/сек
Ширина : 768 пикселей
Высота : 576 пикселей
Соотношение сторон : 4:3
Частота кадров : 25,000 кадров/сек
Цветовое пространство : YUV
Субдискретизация насыщенности : 4:2:0
Битовая глубина : 8 бит
Тип развёртки : Прогрессивная
Метод сжатия : С потерями
Бит/(Пиксели*Кадры) : 0.069
Размер потока : 931 Мбайт (84%)
Библиотека кодирования : Lavc51.40.4
Аудио
Идентификатор : 1
Формат : MPEG Audio
Версия формата : Version 1
Профиль формата : Layer 3
Настройки формата : Joint stereo / MS Stereo
Идентификатор кодека : 55
Идентификатор кодека/Подсказка : MP3
Продолжительность : 2 ч. 50 м.
Вид битрейта : Постоянный
Битрейт : 128 Кбит/сек
Каналы : 2 канала
Частота : 48,0 КГц
Метод сжатия : С потерями
Размер потока : 156 Мбайт (14%)
Выравнивание : Соединение по промежуткам
Продолжительность промежутка : 24 мс. (0,60 видеокадр)
Время предзагрузки промежутка : 48 мс.
Библиотека кодирования : LAME3.97 (beta)
Общее
Полное имя : C:\Users\Сергей\Downloads\Кураторы. Контакты. Каналы. Ступень I. (3К-1)\kurators_kiev_1_2.avi
Формат : AVI
Формат/Информация : Audio Video Interleave
Размер файла : 920 Мбайт
Продолжительность : 2 ч. 13 м.
Общий поток : 963 Кбит/сек
Программа кодирования : transcode-1.0.2
Видео
Идентификатор : 0
Формат : MPEG-4 Visual
Профиль формата : Simple@L1
Параметр BVOP формата : Нет
Параметр QPel формата : Нет
Параметр GMC формата : Без точки перехода
Параметр матрицы формата : Default (H.263)
Идентификатор кодека : DX50
Идентификатор кодека/Подсказка : DivX 5
Продолжительность : 2 ч. 13 м.
Битрейт : 822 Кбит/сек
Ширина : 768 пикселей
Высота : 576 пикселей
Соотношение сторон : 4:3
Частота кадров : 25,000 кадров/сек
Цветовое пространство : YUV
Субдискретизация насыщенности : 4:2:0
Битовая глубина : 8 бит
Тип развёртки : Прогрессивная
Метод сжатия : С потерями
Бит/(Пиксели*Кадры) : 0.074
Размер потока : 785 Мбайт (85%)
Библиотека кодирования : Lavc51.40.4
Аудио
Идентификатор : 1
Формат : MPEG Audio
Версия формата : Version 1
Профиль формата : Layer 3
Настройки формата : Joint stereo / MS Stereo
Идентификатор кодека : 55
Идентификатор кодека/Подсказка : MP3
Продолжительность : 2 ч. 13 м.
Вид битрейта : Постоянный
Битрейт : 128 Кбит/сек
Каналы : 2 канала
Частота : 48,0 КГц
Метод сжатия : С потерями
Размер потока : 122 Мбайт (13%)
Выравнивание : Соединение по промежуткам
Продолжительность промежутка : 24 мс. (0,60 видеокадр)
Время предзагрузки промежутка : 48 мс.
Библиотека кодирования : LAME3.97 (beta)
Общее
Полное имя : C:\Users\Сергей\Downloads\Кураторы. Контакты. Каналы. Ступень I. (3К-1)\kurators_kiev_1_3.avi
Формат : AVI
Формат/Информация : Audio Video Interleave
Размер файла : 1,16 Гбайт
Продолжительность : 3 ч. 0 м.
Общий поток : 924 Кбит/сек
Программа кодирования : transcode-1.0.2
Видео
Идентификатор : 0
Формат : MPEG-4 Visual
Профиль формата : Simple@L1
Параметр BVOP формата : Нет
Параметр QPel формата : Нет
Параметр GMC формата : Без точки перехода
Параметр матрицы формата : Default (H.263)
Идентификатор кодека : DX50
Идентификатор кодека/Подсказка : DivX 5
Продолжительность : 3 ч. 0 м.
Битрейт : 783 Кбит/сек
Ширина : 768 пикселей
Высота : 576 пикселей
Соотношение сторон : 4:3
Частота кадров : 25,000 кадров/сек
Цветовое пространство : YUV
Субдискретизация насыщенности : 4:2:0
Битовая глубина : 8 бит
Тип развёртки : Прогрессивная
Метод сжатия : С потерями
Бит/(Пиксели*Кадры) : 0.071
Размер потока : 1011 Мбайт (85%)
Библиотека кодирования : Lavc51.40.4
Аудио
Идентификатор : 1
Формат : MPEG Audio
Версия формата : Version 1
Профиль формата : Layer 3
Настройки формата : Joint stereo / MS Stereo
Идентификатор кодека : 55
Идентификатор кодека/Подсказка : MP3
Продолжительность : 3 ч. 0 м.
Вид битрейта : Постоянный
Битрейт : 128 Кбит/сек
Каналы : 2 канала
Частота : 48,0 КГц
Метод сжатия : С потерями
Размер потока : 165 Мбайт (14%)
Выравнивание : Соединение по промежуткам
Продолжительность промежутка : 24 мс. (0,60 видеокадр)
Время предзагрузки промежутка : 48 мс.
Библиотека кодирования : LAME3.97 (beta)
Общее
Полное имя : C:\Users\Сергей\Downloads\Кураторы. Контакты. Каналы. Ступень I. (3К-1)\kurators_kiev_1_4.avi
Формат : AVI
Формат/Информация : Audio Video Interleave
Размер файла : 935 Мбайт
Продолжительность : 2 ч. 18 м.
Общий поток : 941 Кбит/сек
Программа кодирования : transcode-1.0.2
Видео
Идентификатор : 0
Формат : MPEG-4 Visual
Профиль формата : Simple@L1
Параметр BVOP формата : Нет
Параметр QPel формата : Нет
Параметр GMC формата : Без точки перехода
Параметр матрицы формата : Default (H.263)
Идентификатор кодека : DX50
Идентификатор кодека/Подсказка : DivX 5
Продолжительность : 2 ч. 18 м.
Битрейт : 800 Кбит/сек
Ширина : 768 пикселей
Высота : 576 пикселей
Соотношение сторон : 4:3
Частота кадров : 25,000 кадров/сек
Цветовое пространство : YUV
Субдискретизация насыщенности : 4:2:0
Битовая глубина : 8 бит
Тип развёртки : Прогрессивная
Метод сжатия : С потерями
Бит/(Пиксели*Кадры) : 0.072
Размер потока : 795 Мбайт (85%)
Библиотека кодирования : Lavc51.40.4
Аудио
Идентификатор : 1
Формат : MPEG Audio
Версия формата : Version 1
Профиль формата : Layer 3
Настройки формата : Joint stereo / MS Stereo
Идентификатор кодека : 55
Идентификатор кодека/Подсказка : MP3
Продолжительность : 2 ч. 18 м.
Вид битрейта : Постоянный
Битрейт : 128 Кбит/сек
Каналы : 2 канала
Частота : 48,0 КГц
Метод сжатия : С потерями
Размер потока : 127 Мбайт (14%)
Выравнивание : Соединение по промежуткам
Продолжительность промежутка : 24 мс. (0,60 видеокадр)
Время предзагрузки промежутка : 48 мс.
Библиотека кодирования : LAME3.97 (beta)
Общее
Полное имя : C:\Users\Сергей\Downloads\Кураторы. Контакты. Каналы. Ступень I. (3К-1)\kurators_moskow_1_1.avi
Формат : AVI
Формат/Информация : Audio Video Interleave
Размер файла : 1,30 Гбайт
Продолжительность : 3 ч. 20 м.
Общий поток : 929 Кбит/сек
Программа кодирования : transcode-1.0.2
Видео
Идентификатор : 0
Формат : MPEG-4 Visual
Профиль формата : Simple@L1
Параметр BVOP формата : Нет
Параметр QPel формата : Нет
Параметр GMC формата : Без точки перехода
Параметр матрицы формата : Default (H.263)
Идентификатор кодека : DX50
Идентификатор кодека/Подсказка : DivX 5
Продолжительность : 3 ч. 20 м.
Битрейт : 788 Кбит/сек
Ширина : 768 пикселей
Высота : 576 пикселей
Соотношение сторон : 4:3
Частота кадров : 25,000 кадров/сек
Цветовое пространство : YUV
Субдискретизация насыщенности : 4:2:0
Битовая глубина : 8 бит
Тип развёртки : Прогрессивная
Метод сжатия : С потерями
Бит/(Пиксели*Кадры) : 0.071
Размер потока : 1,10 Гбайт (85%)
Библиотека кодирования : Lavc51.40.4
Аудио
Идентификатор : 1
Формат : MPEG Audio
Версия формата : Version 1
Профиль формата : Layer 3
Настройки формата : Joint stereo / MS Stereo
Идентификатор кодека : 55
Идентификатор кодека/Подсказка : MP3
Продолжительность : 3 ч. 20 м.
Вид битрейта : Постоянный
Битрейт : 128 Кбит/сек
Каналы : 2 канала
Частота : 48,0 КГц
Метод сжатия : С потерями
Размер потока : 183 Мбайт (14%)
Выравнивание : Соединение по промежуткам
Продолжительность промежутка : 24 мс. (0,60 видеокадр)
Время предзагрузки промежутка : 48 мс.
Библиотека кодирования : LAME3.97 (beta)
Общее
Полное имя : C:\Users\Сергей\Downloads\Кураторы. Контакты. Каналы. Ступень I. (3К-1)\kurators_moskow_1_2.avi
Формат : AVI
Формат/Информация : Audio Video Interleave
Размер файла : 1,20 Гбайт
Продолжительность : 3 ч. 12 м.
Общий поток : 889 Кбит/сек
Программа кодирования : transcode-1.0.2
Видео
Идентификатор : 0
Формат : MPEG-4 Visual
Профиль формата : Simple@L1
Параметр BVOP формата : Нет
Параметр QPel формата : Нет
Параметр GMC формата : Без точки перехода
Параметр матрицы формата : Default (H.263)
Идентификатор кодека : DX50
Идентификатор кодека/Подсказка : DivX 5
Продолжительность : 3 ч. 12 м.
Битрейт : 748 Кбит/сек
Ширина : 768 пикселей
Высота : 576 пикселей
Соотношение сторон : 4:3
Частота кадров : 25,000 кадров/сек
Цветовое пространство : YUV
Субдискретизация насыщенности : 4:2:0
Битовая глубина : 8 бит
Тип развёртки : Прогрессивная
Метод сжатия : С потерями
Бит/(Пиксели*Кадры) : 0.068
Размер потока : 1,01 Гбайт (84%)
Библиотека кодирования : Lavc51.40.4
Аудио
Идентификатор : 1
Формат : MPEG Audio
Версия формата : Version 1
Профиль формата : Layer 3
Настройки формата : Joint stereo / MS Stereo
Идентификатор кодека : 55
Идентификатор кодека/Подсказка : MP3
Продолжительность : 3 ч. 12 м.
Вид битрейта : Постоянный
Битрейт : 128 Кбит/сек
Каналы : 2 канала
Частота : 48,0 КГц
Метод сжатия : С потерями
Размер потока : 177 Мбайт (14%)
Выравнивание : Соединение по промежуткам
Продолжительность промежутка : 24 мс. (0,60 видеокадр)
Время предзагрузки промежутка : 48 мс.
Библиотека кодирования : LAME3.97 (beta)
Общее
Полное имя : C:\Users\Сергей\Downloads\Кураторы. Контакты. Каналы. Ступень I. (3К-1)\kurators_moskow_1_3.avi
Формат : AVI
Формат/Информация : Audio Video Interleave
Размер файла : 1,15 Гбайт
Продолжительность : 2 ч. 46 м.
Общий поток : 992 Кбит/сек
Программа кодирования : transcode-1.0.2
Видео
Идентификатор : 0
Формат : MPEG-4 Visual
Профиль формата : Simple@L1
Параметр BVOP формата : Нет
Параметр QPel формата : Нет
Параметр GMC формата : Без точки перехода
Параметр матрицы формата : Default (H.263)
Идентификатор кодека : DX50
Идентификатор кодека/Подсказка : DivX 5
Продолжительность : 2 ч. 46 м.
Битрейт : 851 Кбит/сек
Ширина : 768 пикселей
Высота : 576 пикселей
Соотношение сторон : 4:3
Частота кадров : 25,000 кадров/сек
Цветовое пространство : YUV
Субдискретизация насыщенности : 4:2:0
Битовая глубина : 8 бит
Тип развёртки : Прогрессивная
Метод сжатия : С потерями
Бит/(Пиксели*Кадры) : 0.077
Размер потока : 1013 Мбайт (86%)
Библиотека кодирования : Lavc51.40.4
Аудио
Идентификатор : 1
Формат : MPEG Audio
Версия формата : Version 1
Профиль формата : Layer 3
Настройки формата : Joint stereo / MS Stereo
Идентификатор кодека : 55
Идентификатор кодека/Подсказка : MP3
Продолжительность : 2 ч. 46 м.
Вид битрейта : Постоянный
Битрейт : 128 Кбит/сек
Каналы : 2 канала
Частота : 48,0 КГц
Метод сжатия : С потерями
Размер потока : 152 Мбайт (13%)
Выравнивание : Соединение по промежуткам
Продолжительность промежутка : 24 мс. (0,60 видеокадр)
Время предзагрузки промежутка : 48 мс.
Библиотека кодирования : LAME3.97 (beta)
Общее
Полное имя : C:\Users\Сергей\Downloads\Кураторы. Контакты. Каналы. Ступень I. (3К-1)\kurators_moskow_1_4.avi
Формат : AVI
Формат/Информация : Audio Video Interleave
Размер файла : 1,34 Гбайт
Продолжительность : 3 ч. 33 м.
Общий поток : 897 Кбит/сек
Программа кодирования : transcode-1.0.2
Видео
Идентификатор : 0
Формат : MPEG-4 Visual
Профиль формата : Simple@L1
Параметр BVOP формата : Нет
Параметр QPel формата : Нет
Параметр GMC формата : Без точки перехода
Параметр матрицы формата : Default (H.263)
Идентификатор кодека : DX50
Идентификатор кодека/Подсказка : DivX 5
Продолжительность : 3 ч. 33 м.
Битрейт : 756 Кбит/сек
Ширина : 768 пикселей
Высота : 576 пикселей
Соотношение сторон : 4:3
Частота кадров : 25,000 кадров/сек
Цветовое пространство : YUV
Субдискретизация насыщенности : 4:2:0
Битовая глубина : 8 бит
Тип развёртки : Прогрессивная
Метод сжатия : С потерями
Бит/(Пиксели*Кадры) : 0.068
Размер потока : 1,13 Гбайт (84%)
Библиотека кодирования : Lavc51.40.4
Аудио
Идентификатор : 1
Формат : MPEG Audio
Версия формата : Version 1
Профиль формата : Layer 3
Настройки формата : Joint stereo / MS Stereo
Идентификатор кодека : 55
Идентификатор кодека/Подсказка : MP3
Продолжительность : 3 ч. 33 м.
Вид битрейта : Постоянный
Битрейт : 128 Кбит/сек
Каналы : 2 канала
Частота : 48,0 КГц
Метод сжатия : С потерями
Размер потока : 196 Мбайт (14%)
Выравнивание : Соединение по промежуткам
Продолжительность промежутка : 24 мс. (0,60 видеокадр)
Время предзагрузки промежутка : 48 мс.
Библиотека кодирования : LAME3.97 (beta)

Дополнительная информация:

Кураторы - разумные Объекты из тонких планов существования материи, Учителя и Помощники из тонко-материальной реальности (Космоса, Ноосферы), Надсмоторщики за судьбами и выборами человека на жизненном пути, Ангелы-Хранители (из религ.)
Контакт - процесс установления соединения между мозгом человека и Курирующей тонко-материальной структурой с последующей передачей информации. Может инициироваться как самим человеком, так и со стороны Кураторов. Различают 2 типа контактов по физике взаимодействия и передачи информации: солетоновый и лучевой (подробнее на семинаре...)
В западной литературе контакт еще определяют словом "ченнелинг".
Канал - энерго-информационный канал связи между мозгом человека (определенными зонами коры больших полушарий мозга и подкорки) и тонко-материальными структурами: Кураторами, Воплощенческим Духом, Информаториями и Эгрегорами.
Скриншоты:
Скачать .torrent

Для того, чтобы скачать торрент-файл

Вячеслав Губанов - Кураторы. Контакты. Каналы. Ступень I. [ЗК-1] (2013)

с нашего сайта, Вам необходимо Войти на сайт под своим логином! Если у Вас ещё нет логина, тогда Вам нужно сначала Зарегистрироваться!

Как скачивать? · Что такое торрент? · Рейтинг и ограничения

Показать сообщения:    
Ответить на тему

Вячеслав Губанов - Кураторы. Контакты. Каналы. Ступень I. [ЗК-1] (2013) скачать торрент (torrent), видеоуроки, тренинги, обучающее видео и видеокурсы

Текущее время: Сегодня 05:58

Часовой пояс: GMT + 4



Вы не можете начинать темы
Вы не можете отвечать на сообщения
Вы не можете редактировать свои сообщения
Вы не можете удалять свои сообщения
Вы не можете голосовать в опросах
Вы не можете прикреплять файлы к сообщениям
Вы не можете скачивать файлы