Lynda.com - Работа с Nikon D3200 и D3300 (2016)

Ответить на тему
 
Автор Сообщение

Yulya ®

Lynda.com | Работа с Nikon D3200 и D3300 (2016) HDRip [H.264/720p-LQ]- Автор (режиссер): Richard Harrington
Производство: Lynda.com
Жанр: Обзор фототехники, обучающий курс
Описание:
Знание того, как настроить камеру, поможет вам получить наилучшие результаты. В этом курсе мы рассмотрим наиболее важные функции вашего Nikon D3300 или 3200. Мы познакомим вас с функциями, которые нужно использовать любому новичку. Вы узнаете о различных режимах съемки, предлагаемых камерой. Как снимать панорамные фотографии и HD-видео. Мы также покажем вам, как передавать эти фотографии и видео по беспроводной сети. Самое главное, что вы научитесь настраивать основные настройки камеры для конкретных ситуаций, чтобы получить максимальную экспозицию и фокус.
Продолжительность: 02:21:12
Качество видео: HDRip
Перевод: Дублированный
Видео: AVC/H.264, 1280x720, ~943-2400 Kbps
Аудио: AAC, 2 ch, 119 Kbps, CBR

Mediainfo:

Общее
Полное имя : 01_01-Добро пожаловать.mp4
Формат : MPEG-4
Профиль формата : Base Media
Идентификатор кодека : isom (isom/iso2/avc1/mp41)
Размер файла : 33,0 Мбайт
Продолжительность : 1 м. 47 с.
Режим общего битрейта : Постоянный
Общий поток : 2566 Кбит/сек
Программа кодирования : Lavf57.57.100
Видео
Идентификатор : 1
Формат : AVC
Формат/Информация : Advanced Video Codec
Профиль формата : Main@L4
Настройки формата : CABAC / 5 Ref Frames
Параметр CABAC формата : Да
Параметр RefFrames формата : 5 кадров
Идентификатор кодека : avc1
Идентификатор кодека/Информация : Advanced Video Coding
Продолжительность : 1 м. 47 с.
Вид битрейта : Постоянный
Битрейт : 2400 Кбит/сек / 2400 Кбит/сек
Ширина : 1280 пикселей
Высота : 720 пикселей
Соотношение сторон : 16:9
Режим частоты кадров : Постоянный
Частота кадров : 29,970 (30000/1001) кадров/сек
Цветовое пространство : YUV
Субдискретизация насыщенности : 4:2:0
Битовая глубина : 8 бит
Тип развёртки : Прогрессивная
Бит/(Пиксели*Кадры) : 0.087
Размер потока : 31,4 Мбайт (95%)
Библиотека кодирования : x264 core 129
Настройки программы : cabac=1 / ref=5 / deblock=1:0:0 / analyse=0x1:0x111 / me=hex / subme=7 / psy=1 / psy_rd=1.00:0.00 / mixed_ref=1 / me_range=16 / chroma_me=1 / trellis=1 / 8x8dct=0 / cqm=0 / deadzone=21,11 / fast_pskip=1 / chroma_qp_offset=-2 / threads=10 / lookahead_threads=1 / sliced_threads=0 / nr=0 / decimate=1 / interlaced=0 / bluray_compat=0 / constrained_intra=0 / bframes=1 / b_pyramid=0 / b_adapt=1 / b_bias=0 / direct=1 / weightb=1 / open_gop=0 / weightp=2 / keyint=300 / keyint_min=29 / scenecut=40 / intra_refresh=0 / rc_lookahead=40 / rc=cbr / mbtree=1 / bitrate=2400 / ratetol=1.0 / qcomp=0.60 / qpmin=0 / qpmax=69 / qpstep=4 / vbv_maxrate=2400 / vbv_bufsize=24000 / nal_hrd=cbr / ip_ratio=3.00 / aq=1:1.00
Язык : English
Аудио
Идентификатор : 2
Формат : AAC
Формат/Информация : Advanced Audio Codec
Профиль формата : LC
Идентификатор кодека : mp4a-40-2
Продолжительность : 1 м. 46 с.
Duration_LastFrame : -28 мс.
Вид битрейта : Постоянный
Битрейт : 119 Кбит/сек
Каналы : 2 канала
Channel(s)_Original : 1 канал
Расположение каналов : Front: C
Частота : 22,05 КГц
Частота кадров : 21,533 кадра/сек (1024 SPF)
Метод сжатия : С потерями
Размер потока : 1,52 Мбайт (5%)
Default : Да
AlternateGroup/String : 1

Дополнительная информация:

Этот курс не является курсом фотографии. Мы не будем углубляться в какие-либо подробности теории или композиции. Мы рассмотрим подробный обзор камер D3300 и D3200. Этот курс поможет вам узнать, как использовать камеру и ее множество настроек. Так что вперед! Возьмите свою камеру и держите ее рядом, чтобы вы смогли исследовать ее многочисленные функции и элементы управления.
Скриншоты:
Скачать .torrent

Для того, чтобы скачать торрент-файл

Lynda.com - Работа с Nikon D3200 и D3300 (2016)

с нашего сайта, Вам необходимо Войти на сайт под своим логином! Если у Вас ещё нет логина, тогда Вам нужно сначала Зарегистрироваться!

Как скачивать? · Что такое торрент? · Рейтинг и ограничения

Показать сообщения:    
Ответить на тему

Lynda.com - Работа с Nikon D3200 и D3300 (2016) скачать торрент (torrent), видеоуроки, тренинги, обучающее видео и видеокурсы

Текущее время: Сегодня 20:29

Часовой пояс: GMT + 4



Вы не можете начинать темы
Вы не можете отвечать на сообщения
Вы не можете редактировать свои сообщения
Вы не можете удалять свои сообщения
Вы не можете голосовать в опросах
Вы не можете прикреплять файлы к сообщениям
Вы не можете скачивать файлы