Раокриом - Ведические технологии для роста лидера и продвижения его бизнеса [Магия + Медицина] (2011)

Ответить на тему
 
Автор Сообщение

Yulya ®

Раокриом | Ведические технологии для роста лидера и продвижения его бизнеса [Магия + Медицина] (2011) DVDRip [H.264] - Автор (режиссер): Раокриом (Мехеда Игорь Владимирович)
Производство: Корпорация "Бизнес-Мастер"
Жанр: Магия, Эзотерика, Теология
Описание:
«Ведические технологии для роста лидера и продвижения его бизнеса» включает в себя три больших курса: «Ведическая Магия: Белая Магия 1-го Круга (Уровня) и основы Теургии. Ведическая Магия: Белая Магия 2-го Круга (Уровня) и Основы Теургии. Основы Ведической Медицины».
Само понятие «Ведическая Магия» существует несколько тысячелетий. В ведических традициях магия – это практическая теология, приложение учения и священных книг к практике самопознания, а также улучшения жизни – как духовной, так и материальной. Каждый священнослужитель, проводящий богослужения в храме, строит их из элементов магии. Магия, вдобавок, сама является самой древней религией Земли.
Продолжительность: 29:58:08
Качество видео: DVDRip
Видео: AVC/H.264, 628-720х460-576, ~500 Kbps
Аудио: AAC, 2 ch, 64-128 Kbps, CBR

Mediainfo:

Код:
General
Complete name                            : C:\Torrents\Раокриом (Мехеда Игорь Владимирович) - Ведические технологии (2011)\01 - Ведическая Магия 1-го Круга (Уровня) и основы Теургии\01. Ведические традиции.mp4
Format                                   : MPEG-4
Format profile                           : Base Media
Codec ID                                 : isom
File size                                : 67.1 MiB
Duration                                 : 14mn 46s
Overall bit rate                         : 635 Kbps
Writing application                      : Lavf57.83.100
Video
ID                                       : 1
Format                                   : AVC
Format/Info                              : Advanced Video Codec
Format profile                           : Main@L3.1
Format settings, CABAC                   : Yes
Format settings, ReFrames                : 5 frames
Codec ID                                 : avc1
Codec ID/Info                            : Advanced Video Coding
Duration                                 : 14mn 46s
Bit rate                                 : 500 Kbps
Width                                    : 720 pixels
Height                                   : 576 pixels
Display aspect ratio                     : 4:3
Original display aspect ratio            : 4:3
Frame rate mode                          : Constant
Frame rate                               : 25.000 fps
Standard                                 : PAL
Color space                              : YUV
Chroma subsampling                       : 4:2:0
Bit depth                                : 8 bits
Scan type                                : Progressive
Bits/(Pixel*Frame)                       : 0.048
Stream size                              : 52.9 MiB (79%)
Writing library                          : x264 core 148 r2708 86b7198
Encoding settings                        : cabac=1 / ref=5 / deblock=1:0:0 / analyse=0x1:0x111 / me=umh / subme=8 / psy=1 / psy_rd=1.00:0.00 / mixed_ref=1 / me_range=16 / chroma_me=1 / trellis=1 / 8x8dct=0 / cqm=0 / deadzone=21,11 / fast_pskip=1 / chroma_qp_offset=-2 / threads=6 / lookahead_threads=1 / sliced_threads=0 / nr=0 / decimate=1 / interlaced=0 / bluray_compat=0 / constrained_intra=0 / bframes=3 / b_pyramid=2 / b_adapt=2 / b_bias=0 / direct=3 / weightb=1 / open_gop=0 / weightp=2 / keyint=250 / keyint_min=25 / scenecut=40 / intra_refresh=0 / rc_lookahead=50 / rc=abr / mbtree=1 / bitrate=500 / ratetol=1.0 / qcomp=0.60 / qpmin=0 / qpmax=69 / qpstep=4 / vbv_maxrate=14000 / vbv_bufsize=14000 / nal_hrd=none / filler=0 / ip_ratio=1.40 / aq=1:1.00
Color primaries                          : BT.601 PAL
Transfer characteristics                 : BT.709
Matrix coefficients                      : BT.601
Audio
ID                                       : 2
Format                                   : AAC
Format/Info                              : Advanced Audio Codec
Format profile                           : LC
Codec ID                                 : 40
Duration                                 : 14mn 46s
Bit rate mode                            : Constant
Bit rate                                 : 128 Kbps
Channel(s)                               : 2 channels
Channel positions                        : Front: L R
Sampling rate                            : 48.0 KHz
Compression mode                         : Lossy
Stream size                              : 13.5 MiB (20%)
Language                                 : English
Код:
General
Complete name                            : C:\Torrents\Раокриом (Мехеда Игорь Владимирович) - Ведические технологии (2011)\04 - magi-tv\01. Кастовое общество в наше Время. Знания жрецов.mp4
Format                                   : MPEG-4
Format profile                           : Base Media
Codec ID                                 : isom
File size                                : 11.3 MiB
Duration                                 : 2mn 43s
Overall bit rate mode                    : Constant
Overall bit rate                         : 583 Kbps
Writing application                      : Lavf57.83.100
Video
ID                                       : 1
Format                                   : AVC
Format/Info                              : Advanced Video Codec
Format profile                           : Baseline@L3.0
Format settings, CABAC                   : No
Format settings, ReFrames                : 1 frame
Format settings, GOP                     : M=1, N=12
Codec ID                                 : avc1
Codec ID/Info                            : Advanced Video Coding
Duration                                 : 2mn 43s
Bit rate mode                            : Constant
Bit rate                                 : 512 Kbps
Width                                    : 628 pixels
Height                                   : 460 pixels
Display aspect ratio                     : 4:3
Frame rate mode                          : Constant
Frame rate                               : 25.000 fps
Color space                              : YUV
Chroma subsampling                       : 4:2:0
Bit depth                                : 8 bits
Scan type                                : Progressive
Bits/(Pixel*Frame)                       : 0.071
Stream size                              : 9.98 MiB (88%)
Audio
ID                                       : 2
Format                                   : AAC
Format/Info                              : Advanced Audio Codec
Format profile                           : LC
Codec ID                                 : 40
Duration                                 : 2mn 43s
Bit rate mode                            : Constant
Bit rate                                 : 64.0 Kbps
Channel(s)                               : 2 channels
Channel positions                        : Front: L R
Sampling rate                            : 44.1 KHz
Compression mode                         : Lossy
Stream size                              : 1.24 MiB (11%)

Содержание:

Ведическая Магия 1-го Круга (Уровня) и основы Теургии
01. Ведические традиции
02. Пять способов соединения с абсолютным
03. Законы, управляющие мирозданием. Закон симпатической связи
04. Закон кармы
05. Пять заповедей ведического мага
06. Белая и черная магия
07. Понятие порчи и методы её снятия
08. Магическая мантика, её три вида
09. Виды порч. Теория выкатывания яйцом
10. Агни-магия, Уровни огня, Практика выкатывания свечой
11. Практика выкатывания яйцом
12. Выкатывание свечой по фотографии
13. Ответы на вопросы
14. Духовные существа вселенной - Часть 1
15. Духовные существа вселенной - Часть 2
16. Освящение воды через вызов Ангелов
17. Экзорцизм и его виды
18. Посвящение в первый круг магии
19. Введение во второй круг магии
20. Ритуалы с Десятирицей
21. Ритуал золотой пентаграммы
22. Ритуал 8-конечной звезды
23. Ответы на вопросы
24. Необоримая сила огня, упражнение
25. Применение мантры <Золотая аватара>
26. Ответы на вопросы
27. Ритуал розового креста
28. Ритуал ведической исповеди
29. Комментарии к ритуалам
30. Ритуалы <Колдовской бутыли>
31. Феи
32. Вызов денежного потока обращением к первопредкам
33. Ритуалы на богатство
34. Комментарии к вызовам духов. Обращение к Азагтоту - владыке хаоса
35. Ритуал <Обращение к Богородице>
36. Оружие богов
37. Рекомендации к вызову духовных существ
38. Посвящение во второй круг магии, Вручение дипломов
39. Ответы на вопросы
Ведическая Магия 2-го Круга (Уровня) и основы Теургии
01. Ведические традиции
02. Пять способов соединения с Абсолютным
03. Закон симпатической связи
04. Закон кармы
05. Закон высшего вмешательства. Пять заповедей ведической магии
06. Белая и чёрная магия
07. Пять уровней нави
08. Понятие порчи. Методы снятия
09. Демоны государственности
10. Магическая мантика, её три вида - Часть 1
11. Магическая мантика, её три вида - Часть 2
12. Магическая мантика (зеркало)
13. Виды порч. Теория выкатывания яйцом
14. Агни-магия, Уровни огня, Свеча
15. Практика выкатывания яйцом
16. Выкатывание свечой по фотографии
17. Полный ритуал очистки дома
18. Духовные существа Вселенной - Часть 1
19. Духовные существа Вселенной - Часть 2
20. Освящение воды через вызов ангелов
21. Экзорцизм и его виды
22. Введение во второй круг магии
23. Ритуалы на Десятирицу
24. Ритуал розового креста
25. Ритуал пентаграммы
26. Ритуал 8-конечной звезды
27. Комментарии к ритуалам вызова духов
28. Ритуал ведической исповеди
29. Виды пирамид, их значение
30. Оружие Богов
31. Ритуал посвящения
32. Вручение дипломов. Ответы на вопросы
Ведическая Медицина
01. Часть 1
02. Часть 2
03. Часть 3
04. Часть 4
05. Часть 5
06. Часть 6
magi-tv
01. Кастовое общество в наше Время. Знания жрецов
02. Здоровое Семантическое Поле. Аура человека. Технология загадывания 12 желаний
03. Полный энергетический потенциал человека и его использование
04. Путешествие по Местам Силы

Дополнительная информация, разрешение на распространение курсов&#58;

Курсы были прочитаны клиентам корпораций: «Бизнес-Мастер» (2010-2012гг.), «Wheel of life (Колесо Жизни)» (2012-2014гг.), «ІТ-Технологии» (2003-2010гг.), «Душа Мира» (2011-2014гг.) All Nation Academy, принадлежащую Secondary Education and Trading Corporation (г. Торонто, Канада, 2015 г.), и многих других корпораций, специализирующихся на обучении предпринимателей необходимым для ведения бизнеса дисциплинам.
Название, содержание и информационное наполнение видеосеминаров является собственностью Издательства «Частный Предприниматель Мехеда Игорь Владимирович» (ЕГРПОУ 2490502415, Свидетельство о внесении субъекта издательской деятельности в Государственный Реестр Книгоиздателей ДК №3078 от 27.12.2007г.) и охраняются Законами об интеллектуальной собственности и авторских правах. Свидетельство про регистрацию авторского права 11095 от 17.09.2004г., выдано Государственным Департаментом интеллектуальной собственности Министерства Просвещения и Науки Украины. Материал видеокурсов также в текстовой форме изложен в изданных книгах Издательства «Ника-Центр». «Раокриом. Ведическая Магия: Белая Магия Первого Круга и Основы Теургии» (г. Киев, Ника-Центр, 2005г., ISBN 966-521-375-Х), «Раокриом. Ведическая Магия Второго Круга и Основы Теургии» (г. Киев, Ника-Центр, 2006г., ISBN 966-521-381-4), «Раокриом. Ведическая Магия: Ритуалы, Инструменты, Обряды» (г. Киев, Ника-Центр, 2006г., ISBN 966-521-414-4, а также её последующие переиздания, включая переиздание 2011 года ISBN 978-966-521-414-4).
Данное выкладывание семинаров в Интернет для скачивания пользователями является НЕКОММЕРЧЕСКОЙ акцией, главной целью акции служит ознакомление интересующихся со спектром знаний в области ведической философии, эзотерики, психологии и методикам и технологиям их применения в жизни. Законы об авторских правах полностью соблюдены. Акцию также поддерживают официально зарегистрированные торговые марки, принадлежащие Мехеде Игорю Владимировичу: «Раокриом», «Мистическая Гирлянда».
Я (Мехеда Игорь), как правообладатель, также разрешаю распространение этой информации в передачах Интернет-Телевидения, на дисках или других электронных носителях, показ в офисных и домашних кинотеатрах. Я также даю разрешение на использование отрывков из семинаров в документальных фильмах. Единственное требование к коллегам, использующим материал — ссылка на правообладателя Открываю доступ к видеосеминарам «Ведические Технологии».
Скачать .torrent

Для того, чтобы скачать торрент-файл

Раокриом - Ведические технологии для роста лидера и продвижения его бизнеса [Магия + Медицина] (2011)

с нашего сайта, Вам необходимо Войти на сайт под своим логином! Если у Вас ещё нет логина, тогда Вам нужно сначала Зарегистрироваться!

Как скачивать? · Что такое торрент? · Рейтинг и ограничения

Показать сообщения:    
Ответить на тему

Раокриом - Ведические технологии для роста лидера и продвижения его бизнеса [Магия + Медицина] (2011) скачать торрент (torrent), видеоуроки, тренинги, обучающее видео и видеокурсы

Текущее время: Сегодня 07:04

Часовой пояс: GMT + 4



Вы не можете начинать темы
Вы не можете отвечать на сообщения
Вы не можете редактировать свои сообщения
Вы не можете удалять свои сообщения
Вы не можете голосовать в опросах
Вы не можете прикреплять файлы к сообщениям
Вы не можете скачивать файлы