Лев Вожеватов - Мужская сексуальность - с чего начать (2012)

Ответить на тему
 
Автор Сообщение

Yulya ®

Лев Вожеватов | Мужская сексуальность - с чего начать (2012) HDRip [H.264/720p-LQ] - Автор (режиссер): Лев Вожеватов
Жанр: Пикап, Соблазнение
Описание:
Парни стараются вовсю! Кто-то считает, что мужская сексуальность выражается в накачанных бицепсах, которыми они эффектно поигрывают. Другие уверены, что брутальность мужчины измеряется в крутых гаджетах, которые он не выпускает из рук, где бы ни находился. Третьи ежедневно посещают солярий, подчёркивая загар белыми майками «в облипочку».
Тем временем, девушки выбирают по-настоящему сильных харизматичных мужчин, умеющих не только произвести впечатление, но и источающих флюиды энергии.
Это и есть настоящая сексуальность — которая не на виду, а внутри!
Продолжительность: 01:34:13
Качество видео: HDRip
Видео: AVC/H.264, 1280х720, ~1176 Kbps
Аудио: AAC, 2 ch, 152 Kbps, VBR

Mediainfo:

Код:
General
Complete name                            : C:\Torrents\Лев Вожеватов - Мужская сексуальность - с чего начать (2012).mp4
Format                                   : MPEG-4
Format profile                           : Base Media / Version 2
Codec ID                                 : mp42
File size                                : 897 MiB
Duration                                 : 1h 34mn
Overall bit rate mode                    : Variable
Overall bit rate                         : 1 331 Kbps
Encoded date                             : UTC 2012-02-13 11:44:43
Tagged date                              : UTC 2012-02-13 11:44:43
gsst                                     : 0
gstd                                     : 5654058
gssd                                     : B4A7DD843MH1329220169801130
gshh                                     : v3.cache3.c.youtube.com
Video
ID                                       : 1
Format                                   : AVC
Format/Info                              : Advanced Video Codec
Format profile                           : High@L3.1
Format settings, CABAC                   : Yes
Format settings, ReFrames                : 1 frame
Format settings, GOP                     : M=1, N=30
Codec ID                                 : avc1
Codec ID/Info                            : Advanced Video Coding
Duration                                 : 1h 34mn
Bit rate                                 : 1 176 Kbps
Maximum bit rate                         : 3 379 Kbps
Width                                    : 1 280 pixels
Height                                   : 720 pixels
Display aspect ratio                     : 16:9
Frame rate mode                          : Constant
Frame rate                               : 29.970 fps
Color space                              : YUV
Chroma subsampling                       : 4:2:0
Bit depth                                : 8 bits
Scan type                                : Progressive
Bits/(Pixel*Frame)                       : 0.043
Stream size                              : 793 MiB (88%)
Encoded date                             : UTC 1970-01-01 00:00:00
Tagged date                              : UTC 2012-02-13 11:45:27
Audio
ID                                       : 2
Format                                   : AAC
Format/Info                              : Advanced Audio Codec
Format profile                           : LC
Codec ID                                 : 40
Duration                                 : 1h 34mn
Bit rate mode                            : Variable
Bit rate                                 : 152 Kbps
Maximum bit rate                         : 186 Kbps
Channel(s)                               : 2 channels
Channel positions                        : Front: L R
Sampling rate                            : 44.1 KHz
Compression mode                         : Lossy
Stream size                              : 102 MiB (11%)
Title                                    : IsoMedia File Produced by Google, 5-11-2011
Encoded date                             : UTC 2012-02-13 11:45:00
Tagged date                              : UTC 2012-02-13 11:45:27

Дополнительная информация:

Настоящая мужская сексуальность таится не в шмотках и загаре. Она присуща сильным личностям, которые внешне могут выглядеть совсем даже просто. Один из моих друзей не обладает внешней красотой, но зато наделён потрясающим чувством юмора, чертовски инициативен, всегда бодр, свеж и полон сил. Девушки липнут к нему, как мухи на мёд! Они считают его бесподобным «обаяшкой», и им фиолетово, что с виду он белобрысый и тщедушный.
Понимаешь, в чём фишка?
Сексуальность — это не образ, это состояние души. Хочешь узнать, как сформировать твою мужскую сексуальность правильно и быстро?
Я не буду гундеть о вещах очевидных, вроде опрятной одежды и свежего запаха изо рта.
Я расскажу, как извлечь Твой Внутренний Секс и использовать его максимально эффективно.
Я дам тебе чёткие подробные инструкции, чтобы ты сразу понял, как начать развитие и увидеть плоды своих трудов сразу же
Изучение мастер-класса даст тебе возможность планомерно и постепенно развивать свою личность, наблюдая конкретные результаты в самые ближайшие сроки.
Теперь у тебя будут ориентиры, которые не дадут тебе сбиться с пути формирования твоей мужественности, харизмы и обаяния.
Скачать .torrent

Для того, чтобы скачать торрент-файл

Лев Вожеватов - Мужская сексуальность - с чего начать (2012)

с нашего сайта, Вам необходимо Войти на сайт под своим логином! Если у Вас ещё нет логина, тогда Вам нужно сначала Зарегистрироваться!

Как скачивать? · Что такое торрент? · Рейтинг и ограничения

Показать сообщения:    
Ответить на тему

Лев Вожеватов - Мужская сексуальность - с чего начать (2012) скачать торрент (torrent), видеоуроки, тренинги, обучающее видео и видеокурсы

Текущее время: Сегодня 00:18

Часовой пояс: GMT + 4



Вы не можете начинать темы
Вы не можете отвечать на сообщения
Вы не можете редактировать свои сообщения
Вы не можете удалять свои сообщения
Вы не можете голосовать в опросах
Вы не можете прикреплять файлы к сообщениям
Вы не можете скачивать файлы