Лев Вожеватов - Свидание - Пошаговая Видеоинструкция (2012)

Ответить на тему
 
Автор Сообщение

Yulya ®

Лев Вожеватов | Свидание - Пошаговая Видеоинструкция (2012) CamRip [H.264] - Автор (режиссер): Лев Вожеватов
Жанр: Пикап, Соблазнение
Описание:
Такого еще не было!
Впервые в России, я (Лев Вожеватов) представляю тебе уникальный продукт – мастер класс на тему “Свидание - пошаговая видеоинструкция”. Мы вместе с тобой пошагово разберем свидание с девушкой от встречи ее у метро до поцелуев и ласк. Я дам тебе уникальную систему позволяющую очаровать любую девушку на свидании и стать харизматичным для нее мужчиной.
Все мои материалы эффективны и проверены годами и сотнями свиданий, поэтому я для наглядности пригласил на интернет-семинар прекрасную помощницу – мисс Лина. Ты увидишь как вся система действует даже на этой искушенной мужским вниманием девушкой.
Все техники я буду показывать на девушке Лине
Продолжительность: 02:10:26
Качество видео: CamRip
Видео: AVC/H.264, 480х360, ~260 Kbps
Аудио: AAC, 2 ch, 96 Kbps, VBR

Mediainfo:

Код:
General
Complete name                            : C:\Torrents\Лев Вожеватов - Свидание - Пошаговая Видеоинструкция (2012).mp4
Format                                   : MPEG-4
Format profile                           : Base Media / Version 2
Codec ID                                 : mp42
File size                                : 334 MiB
Duration                                 : 2h 10mn
Overall bit rate mode                    : Variable
Overall bit rate                         : 358 Kbps
Encoded date                             : UTC 2012-04-08 03:42:36
Tagged date                              : UTC 2012-04-08 03:42:36
gsst                                     : 0
gstd                                     : 7827098
gssd                                     : B4A7DA304MH1334668147817305
gshh                                     : v4.nonxt2.c.youtube.com
Video
ID                                       : 1
Format                                   : AVC
Format/Info                              : Advanced Video Codec
Format profile                           : Baseline@L3.0
Format settings, CABAC                   : No
Format settings, ReFrames                : 1 frame
Format settings, GOP                     : M=1, N=30
Codec ID                                 : avc1
Codec ID/Info                            : Advanced Video Coding
Duration                                 : 2h 10mn
Bit rate                                 : 260 Kbps
Maximum bit rate                         : 525 Kbps
Width                                    : 480 pixels
Height                                   : 360 pixels
Display aspect ratio                     : 4:3
Frame rate mode                          : Constant
Frame rate                               : 30.000 fps
Color space                              : YUV
Chroma subsampling                       : 4:2:0
Bit depth                                : 8 bits
Scan type                                : Progressive
Bits/(Pixel*Frame)                       : 0.050
Stream size                              : 242 MiB (73%)
Encoded date                             : UTC 1970-01-01 00:00:00
Tagged date                              : UTC 2012-04-08 03:42:38
Audio
ID                                       : 2
Format                                   : AAC
Format/Info                              : Advanced Audio Codec
Format profile                           : LC
Codec ID                                 : 40
Duration                                 : 2h 10mn
Bit rate mode                            : Variable
Bit rate                                 : 96.0 Kbps
Maximum bit rate                         : 117 Kbps
Channel(s)                               : 2 channels
Channel positions                        : Front: L R
Sampling rate                            : 44.1 KHz
Compression mode                         : Lossy
Stream size                              : 89.1 MiB (27%)
Title                                    : IsoMedia File Produced by Google, 5-11-2011
Encoded date                             : UTC 2012-04-08 03:42:37
Tagged date                              : UTC 2012-04-08 03:42:38

Дополнительная информация:

Что гарантированно будет в мастер-классе:
- Убойная техника перехода к возбуждающим прикосновениям – “Зеркало”
- Разбор женских типажей
- Как вести интересный диалог
- Простые методы перейти на сексуальный контекст, техника “ОПФ”
- Харизматичная невербалика или как очаровать девушку ничего не говоря
- Фирменные переходы на поцелуй
- И многое, многое другое...
Что ты получишь благодаря этому мастер-классу?
- Ты получишь четкое понимание того, как с помощью одного свидания соблазнить действительно красивую девушку, ту которая раньше была недоступна.
- Ты узнаешь, как вести себя на первом свидании так, чтобы девушка хотела вас видеть снова и снова.
- Вы избавитесь от иллюзий, что девушек надо вести в рестораны и покупать дорогую выпивку.
- Ты своими глазами увидишь ВСЕ ЛУЧШИЕ СТРАТЕГИИ И ТАКТИКИ быстрого очарования девушек во время свидания
- Ты поймешь, как сблизиться с девушкой, чтобы построить доверительные отношения на несколько встреч вперед.
- Ты получишь доступ к лучших технологиям быстрого соблазнения в России. Хитрости, фишки, секреты!
- Ты поднимешь свою личность на НОВЫЙ УРОВЕНЬ. Внедрив всего лишь 20% из информации на семинаре, ты гарантировано увеличишь свои свидания.
- Ты узнаешь, как с помощью правильно настроенной невербалики возбудить девушку и при этом перейти на сексуальный контекст.
- Вы получите четко структурированную информацию от профессионалов в своей области, БЕЗ "воды", лишних усложнений и сказочных теорий.
- Ты раз и навсегда разберешься со всей "кашей в голове", из-за которой Вы не знаете, что конкретно нужно делать и как правильно проводить первое свидание.
Скачать .torrent

Для того, чтобы скачать торрент-файл

Лев Вожеватов - Свидание - Пошаговая Видеоинструкция (2012)

с нашего сайта, Вам необходимо Войти на сайт под своим логином! Если у Вас ещё нет логина, тогда Вам нужно сначала Зарегистрироваться!

Как скачивать? · Что такое торрент? · Рейтинг и ограничения

Показать сообщения:    
Ответить на тему

Лев Вожеватов - Свидание - Пошаговая Видеоинструкция (2012) скачать торрент (torrent), видеоуроки, тренинги, обучающее видео и видеокурсы

Текущее время: Сегодня 01:07

Часовой пояс: GMT + 4



Вы не можете начинать темы
Вы не можете отвечать на сообщения
Вы не можете редактировать свои сообщения
Вы не можете удалять свои сообщения
Вы не можете голосовать в опросах
Вы не можете прикреплять файлы к сообщениям
Вы не можете скачивать файлы