Фокусы языка 3.0 - Пелехатый, Станкевич (2017)

Ответить на тему
 
Автор Сообщение

Yulya ®

Фокусы языка 3.0 - Пелехатый, Станкевич (2017) CamRip [H.264/720p-LQ]- Автор (режиссер): Михаил Пелехатый, Юрий Станкевич
Производство: Институт современного НЛП
Жанр: НЛП, Личностный рост, психология
Описание:
Фокусы языка 3.0 нлп видео Михаил Пелехатый и Юрий Станкевич
Видеозапись двухдневного очного тренинга,о, Институт Современного НЛП, Москва, июнь 2017
Продолжительность: 6:25:19
Качество видео: CamRip
Видео: AVC/H.264, 1280х720, ~1999 Kbps
Аудио: AAC, 2 ch, 256 Kbps

Mediainfo:

Общее
Полное имя : D:\µTorrent\Фокусы языка 3.0 - Пелехатый, Станкевич (2017)\Фокусы языка - 1 День (Часть 1).mp4
Формат : MPEG-4
Профиль формата : Base Media / Version 2
Идентификатор кодека : mp42 (mp41/mp42/isom)
Размер файла : 2,09 Гбайт
Продолжительность : 2 ч. 12 м.
Режим общего битрейта : Переменный
Общий поток : 2255 Кбит/сек
Название фильма : Фокусы языка.День1.Часть1
Movie_More : Фокусы языка.День1.Часть1
Дата кодирования : UTC 2017-06-13 14:07:36
Дата пометки : UTC 2017-06-13 14:48:58
thmb : яШяа
Видео
Идентификатор : 2
Формат : AVC
Формат/Информация : Advanced Video Codec
Профиль формата : High@L3.1
Настройки формата : CABAC / 2 Ref Frames
Параметр CABAC формата : Да
Параметр RefFrames формата : 2 кадра
Параметр GOP формата : M=1, N=30
Идентификатор кодека : avc1
Идентификатор кодека/Информация : Advanced Video Coding
Продолжительность : 2 ч. 12 м.
Вид битрейта : Переменный
Битрейт : 1999 Кбит/сек
Максимальный битрейт : 768 Кбит/сек
Ширина : 1280 пикселей
Высота : 720 пикселей
Соотношение сторон : 16:9
Режим частоты кадров : Постоянный
Частота кадров : 25,000 кадров/сек
Цветовое пространство : YUV
Субдискретизация насыщенности : 4:2:0
Битовая глубина : 8 бит
Тип развёртки : Прогрессивная
Бит/(Пиксели*Кадры) : 0.087
Размер потока : 1,85 Гбайт (89%)
Заголовок : Core Media Video
Дата кодирования : UTC 2017-06-13 14:07:36
Дата пометки : UTC 2017-06-13 14:48:58
Цветовой диапазон : Limited
Основные цвета : BT.709
Характеристики трансфера : BT.709
Коэффициенты матрицы : BT.709
Аудио
Идентификатор : 1
Формат : AAC
Формат/Информация : Advanced Audio Codec
Профиль формата : LC
Идентификатор кодека : mp4a-40-2
Продолжительность : 2 ч. 12 м.
Продолжительность оригинала : 2 ч. 12 м.
Вид битрейта : Постоянный
Битрейт : 256 Кбит/сек
Каналы : 2 канала
Расположение каналов : Front: L R
Частота : 48,0 КГц
Частота кадров : 46,875 кадров/сек (1024 SPF)
Метод сжатия : С потерями
Размер потока : 240 Мбайт (11%)
Размер потока оригинала : 240 Мбайт (11%)
Заголовок : Core Media Audio
Язык : Russian
Дата кодирования : UTC 2017-06-13 14:07:36
Дата пометки : UTC 2017-06-13 14:48:58
Скриншоты:
Скачать .torrent

Для того, чтобы скачать торрент-файл

Фокусы языка 3.0 - Пелехатый, Станкевич (2017)

с нашего сайта, Вам необходимо Войти на сайт под своим логином! Если у Вас ещё нет логина, тогда Вам нужно сначала Зарегистрироваться!

Как скачивать? · Что такое торрент? · Рейтинг и ограничения

Показать сообщения:    
Ответить на тему

Фокусы языка 3.0 - Пелехатый, Станкевич (2017) скачать торрент (torrent), видеоуроки, тренинги, обучающее видео и видеокурсы

Текущее время: Сегодня 04:55

Часовой пояс: GMT + 4



Вы не можете начинать темы
Вы не можете отвечать на сообщения
Вы не можете редактировать свои сообщения
Вы не можете удалять свои сообщения
Вы не можете голосовать в опросах
Вы не можете прикреплять файлы к сообщениям
Вы не можете скачивать файлы