Екатерина Любимова - Видеокурс «57 практических фотошоп уроков для чайников» (2017)

Ответить на тему
 
Автор Сообщение

Yulya ®

Екатерина Любимова | Видеокурс «57 практических фотошоп уроков для чайников» (2017) HDTVRip [H.264/720p-LQ] - Автор (режиссер): Екатерина Любимова
Жанр: Практические уроки Photoshop
Описание:
Видеокурс «Photoshop для чайников, 57 практических уроков» направлен на тех людей, которые прошли теоретическую базу и хотят на практических примерах отработать свои навыки. Здесь уже не будет тщательного разбора инструментов, только практическое применение. После прохождения курса у вас в рабочей папке будет около 50-ти готовых фотошоп-работ. К каждому уроку даются дополнительные материалы, чтобы вы могли повторять все действия и получать такой же результат, как у автора.
Продолжительность: 15:48:00
Качество видео: HDTVRip
Видео: AVC/H.264, 1280х720, ~931 Kbps
Аудио: AAC, 2 ch, 192 Kbps

Mediainfo:

General
Complete name : .\Photoshop_dlja_chajnikov_57_prakticheskih_urokov\188-Photoshop_dlja_chajnikov,_57_prakticheskih_urokov\Photoshop_dlja_chajnikov,_57_prakticheskih_urokov\rs\video\1\1.1.mp4
Format : MPEG-4
Format profile : Base Media / Version 2
Codec ID : mp42 (isom/mp42)
File size : 122 MiB
Duration : 15 min 8 s
Overall bit rate mode : Variable
Overall bit rate : 1 125 kb/s
Encoded date : UTC 2017-09-13 09:48:41
Tagged date : UTC 2017-09-13 09:48:41
gsst : 0
gstd : 908480
Video
ID : 1
Format : AVC
Format/Info : Advanced Video Codec
Format profile : High@L3.1
Format settings, CABAC : Yes
Format settings, RefFrames : 1 frame
Codec ID : avc1
Codec ID/Info : Advanced Video Coding
Duration : 15 min 8 s
Bit rate : 931 kb/s
Maximum bit rate : 7 586 kb/s
Width : 1 280 pixels
Height : 720 pixels
Display aspect ratio : 16:9
Frame rate mode : Constant
Frame rate : 21.000 FPS
Color space : YUV
Chroma subsampling : 4:2:0
Bit depth : 8 bits
Scan type : Progressive
Bits/(Pixel*Frame) : 0.048
Stream size : 101 MiB (83%)
Tagged date : UTC 2017-09-13 09:48:44
Color range : Limited
Color primaries : BT.709
Transfer characteristics : BT.709
Matrix coefficients : BT.709
Audio
ID : 2
Format : AAC
Format/Info : Advanced Audio Codec
Format profile : LC
Codec ID : 40
Duration : 15 min 8 s
Bit rate mode : Variable
Bit rate : 192 kb/s
Maximum bit rate : 202 kb/s
Channel(s) : 2 channels
Channel positions : Front: L R
Sampling rate : 44.1 kHz
Frame rate : 43.066 FPS (1024 SPF)
Compression mode : Lossy
Stream size : 20.8 MiB (17%)
Title : IsoMedia File Produced by Google, 5-11-2011
Language : English
Encoded date : UTC 2017-09-13 09:48:43
Tagged date : UTC 2017-09-13 09:48:44

Содержание:

Раздел 1. Восстановление старых фото
Раздел 2. Обработка портретных фото
Раздел 3. Коллажи в Фотошопе
Раздел 4. Текстуры и фоны
Раздел 5. Работа с текстом
Раздел 6. Фото превращения
Раздел 7. Рисование в Фотошоп
Раздел 8. Оформление Фотографий
Раздел 9. Природные эффекты
Раздел 10. Дизайн

Дополнительная информация:

Файлы .woff .woff2 .ttf кроссбраузерное подключение шрифтов. (в просторах интернета нашел)

Бонусы:

Бонус 1. Ягодный
Бонус 2. Цветочный
Бонус 3. Любимый
Бонус 4. Установка дополнений
Бонус 5. 160 фотошоп-рамок
Скриншоты:
Скачать .torrent

Для того, чтобы скачать торрент-файл

Екатерина Любимова - Видеокурс «57 практических фотошоп уроков для чайников» (2017)

с нашего сайта, Вам необходимо Войти на сайт под своим логином! Если у Вас ещё нет логина, тогда Вам нужно сначала Зарегистрироваться!

Как скачивать? · Что такое торрент? · Рейтинг и ограничения

Показать сообщения:    
Ответить на тему

Екатерина Любимова - Видеокурс «57 практических фотошоп уроков для чайников» (2017) скачать торрент (torrent), видеоуроки, тренинги, обучающее видео и видеокурсы

Текущее время: Сегодня 23:24

Часовой пояс: GMT + 4



Вы не можете начинать темы
Вы не можете отвечать на сообщения
Вы не можете редактировать свои сообщения
Вы не можете удалять свои сообщения
Вы не можете голосовать в опросах
Вы не можете прикреплять файлы к сообщениям
Вы не можете скачивать файлы