Александр Гусин - Архитектурные решения. Жилой дом (2017)

Ответить на тему
 
Автор Сообщение

Yulya ®

Александр Гусин| Архитектурные решения. Жилой дом (2017) [unpacked]- Автор (режиссер): Александр Гусин
Производство: Россия / "Проект с нуля"
Жанр: Проектирование, архитектура
Описание:
Выполни за 10 дней собственный рабочий проект жилого дома.
Научим новой специализации и познакомим со всеми разделами настоящего рабочего проекта жилого дома всего за 14 уроков.
Продолжительность: 03:34:44
Качество видео: PCRec
Видео: AVC/H.264, 1280х720, ~1283 Kbps
Аудио: AAC, 2 ch, 192 Kbps

Mediainfo:

Общее
Полное имя : AR\01_lesson_AR.mp4
Формат : MPEG-4
Профиль формата : Base Media
Идентификатор кодека : isom (isom/iso2/avc1/mp41)
Размер файла : 121 Мбайт
Продолжительность : 11 м. 25 с.
Общий поток : 1485 Кбит/сек
Программа кодирования : Lavf57.40.101
Видео
Идентификатор : 1
Формат : AVC
Формат/Информация : Advanced Video Codec
Профиль формата : Main@L3.1
Параметр CABAC формата : Да
Параметр ReFrames формата : 1 кадр
Параметр GOP формата : M=1, N=25
Идентификатор кодека : avc1
Идентификатор кодека/Информация : Advanced Video Coding
Продолжительность : 11 м. 25 с.
Битрейт : 1283 Кбит/сек
Ширина : 1280 пикселей
Высота : 720 пикселей
Соотношение сторон : 16:9
Режим частоты кадров : Постоянный
Частота кадров : 29,970 (30000/1001) кадров/сек
Цветовое пространство : YUV
Субдискретизация насыщенности : 4:2:0
Битовая глубина : 8 бит
Тип развёртки : Прогрессивная
Бит/(Пиксели*Кадры) : 0.046
Размер потока : 105 Мбайт (86%)
Аудио
Идентификатор : 2
Формат : AAC
Формат/Информация : Advanced Audio Codec
Профиль формата : LC
Идентификатор кодека : 40
Продолжительность : 11 м. 25 с.
Вид битрейта : Постоянный
Битрейт : 192 Кбит/сек
Каналы : 2 канала
Расположение каналов : Front: L R
Частота : 44,1 КГц
Частота кадров : 43,066 кадра/сек (1024 spf)
Метод сжатия : С потерями
Размер потока : 15,9 Мбайт (13%)
Default : Да
Alternate group : 1

Дополнительная информация:

В курс «Архитектурные решения. Жилой дом» входит:
1. Вводная часть, предисловие;
2. План этажа;
3. Выбор структуры наружных стен;
4. План перегородок;
5. Разрез;
6. Фасады. Ведомость отделки фасадов;
7. План кровли;
8. Схемы элементов заполнения проёмов и спецификация на них;
9. Экспликация полов;
10. Ведомость отделки помещений;
11. Схемы ограждений;
12. Узлы, спецификация материалов и изделий на кровлю;
13. Расчёт водосточной системы;
14. Оформление листа общих данных
+ Дополнительные материалы в виде pdf и шаблонов dwg

Обновлено 19.10.2017:

Убрана оболочка видеокурса, оставлены все 14 уроков со снятой защитой+дополнительные материалы. Удачи в изучении!
Скриншоты:
Торрент перезалит, убрана оболочка видеокурса, оставлены все 14 уроков со снятой защитой+дополнительные материалы
Скачать .torrent

Для того, чтобы скачать торрент-файл

Александр Гусин - Архитектурные решения. Жилой дом (2017)

с нашего сайта, Вам необходимо Войти на сайт под своим логином! Если у Вас ещё нет логина, тогда Вам нужно сначала Зарегистрироваться!

Как скачивать? · Что такое торрент? · Рейтинг и ограничения

Показать сообщения:    
Ответить на тему

Александр Гусин - Архитектурные решения. Жилой дом (2017) скачать торрент (torrent), видеоуроки, тренинги, обучающее видео и видеокурсы

Текущее время: Сегодня 05:57

Часовой пояс: GMT + 4



Вы не можете начинать темы
Вы не можете отвечать на сообщения
Вы не можете редактировать свои сообщения
Вы не можете удалять свои сообщения
Вы не можете голосовать в опросах
Вы не можете прикреплять файлы к сообщениям
Вы не можете скачивать файлы